<?xml version="1.0" standalone="no"?>
<!DOCTYPE svg PUBLIC "-//W3C//DTD SVG 1.1//EN" "http://www.w3.org/Graphics/SVG/1.1/DTD/svg11.dtd" >
<svg xmlns="http://www.w3.org/2000/svg">
  <metadata>Created by iconfont</metadata>
  <defs>
  <font id="iconfont" horiz-adv-x="1024">
    <font-face
      font-family="iconfont"
      font-weight="400"
      font-stretch="normal"
      units-per-em="1024"
      ascent="896"
      descent="-128"
    />
      <missing-glyph />
      
      <glyph glyph-name="cancel_02" unicode="&#59907;" d="M983.988852 583.3421C931.209505 706.819708 834.850739 803.193988 714.677659 854.70117l-3.320041 1.272165C653.443067 881.261499 585.956248 895.984486 515.025274 895.984486L511.844861 895.968972H512.015517l-3.025271 0.015514c-70.91546 0-138.402279-14.722986-199.574814-41.267802l3.24247 1.256651C189.180295 803.193988 92.806015 706.835222 41.298833 586.662142l-1.272165-3.320042C14.738504 525.42755 0.015517 457.940731 0.015517 387.009757l0.015514-3.180413V384l-0.015514-3.025271c0-70.91546 14.722986-138.402279 41.267802-199.574814l-1.256651 3.24247c52.779347-123.477607 149.138113-219.851888 269.311193-271.359069l3.320041-1.272165c57.914551-25.288164 125.40137-40.011151 196.332344-40.011151l3.180413 0.015514h-0.170656l3.025271-0.015514c70.91546 0 138.402279 14.722986 199.574814 41.267802l-3.24247-1.256651c123.477607 52.779347 219.851888 149.138113 271.359069 269.311193l1.272165 3.320041c25.288164 57.914551 40.011151 125.40137 40.011151 196.332344L1023.984489 384.155142v-0.170656l0.015514 3.025271c0 70.91546-14.722986 138.402279-41.267802 199.574814l1.256651-3.242471z m-245.745106-335.013877a64.02715 64.02715 0 0 0-90.540937-90.540937l-135.671778 135.671777-135.671777-135.671777a64.02715 64.02715 0 0 0-90.540937 90.540937L421.490094 384l-135.671777 135.671777a64.02715 64.02715 0 0 0 90.540937 90.540937l135.671777-135.671777 135.671778 135.671777a64.02715 64.02715 0 0 0 90.540937-90.540937L602.571968 384z"  horiz-adv-x="1024" />
      
      <glyph glyph-name="Shape" unicode="&#59320;" d="M960 704l-192 192-544-544-64-256 256 64L960 704zM512-32H64V-128h448v96z"  horiz-adv-x="1024" />
      
      <glyph glyph-name="plus_01" unicode="&#59835;" d="M735.997518 415.984795a32.007292 32.007292 0 1 0 0-64.014584H544.00031v-191.997207a32.007292 32.007292 0 1 0-64.014584 0V351.970211H287.988519a32.007292 32.007292 0 1 0 0 64.014584h191.997207V607.982003a32.007292 32.007292 0 1 0 64.014584 0v-191.997208zM511.993018-64.000465l2.761657-0.015515c62.059703 0 121.047451 13.079082 174.387767 36.615225a452.508327 452.508327 0 0 1 139.308519 94.920316 463.120536 463.120536 0 0 1 94.827226 139.432638 431.376998 431.376998 0 0 1 36.6928 174.589461l-0.015515 2.590993 0.015515 2.637537c0 62.059703-13.079082 121.047451-36.615225 174.387766A453.144439 453.144439 0 0 1 689.282076 795.340247a431.423543 431.423543 0 0 1-174.542916 36.66177l-2.916806-0.015515-2.622022 0.015515c-62.059703 0-121.047451-13.079082-174.387767-36.615225A453.144439 453.144439 0 0 1 100.630274 561.313106a431.423543 431.423543 0 0 1-36.646254-177.459722l-0.015515-2.622023c0-62.059703 13.079082-121.047451 36.615225-174.387766a463.741133 463.741133 0 0 1 94.951346-139.680877 452.973775 452.973775 0 0 1 139.12234-94.827227 431.454573 431.454573 0 0 1 173.813714-36.351471l3.692552 0.015515zM511.993018 895.985571l3.025411 0.015515c70.918726 0 138.408653-14.723665 199.584006-41.269703a511.527105 511.527105 0 0 0 268.128948-268.066888 500.433933 500.433933 0 0 0 41.269703-199.661581l-0.015515-3.18056 0.015515-2.854746c0-70.918726-14.723665-138.408653-41.269703-199.584006a511.527105 511.527105 0 0 0-268.066888-268.128949 500.433933 500.433933 0 0 0-199.661581-41.269702L511.822354-127.999535l-2.854746-0.015514c-70.918726 0-138.408653 14.723665-199.584006 41.269702A511.527105 511.527105 0 0 0 41.254653 181.321542a500.433933 500.433933 0 0 0-41.269702 199.661581L0.000465 384.163682l-0.015514 2.854747c0 70.918726 14.723665 138.408653 41.269702 199.584006A511.527105 511.527105 0 0 0 309.321542 854.731383 500.433933 500.433933 0 0 0 512.163682 895.985571z"  horiz-adv-x="1024" />
      
      <glyph glyph-name="favorite_02" unicode="&#59753;" d="M288.007758 832c43.768242-0.853333 84.185212-14.475636 117.884121-37.282909a689.803636 689.803636 0 0 0 106.371879-83.269818 578.218667 578.218667 0 0 0 103.470545 82.307879c35.653818 23.784727 76.288 37.40703 120.056242 38.260363l3.196122 0.015515c38.151758 0 74.519273-7.64897 107.659636-21.504a291.777939 291.777939 0 0 0 90.887758-63.255272 273.532121 273.532121 0 0 0 65.318787-94.254546c14.553212-34.024727 22.636606-71.524848 22.636607-110.917818s-8.083394-76.908606-22.667637-110.948849a282.949818 282.949818 0 0 0-65.117091-94.052848l-57.390545-59.624727q-56.32-58.554182-122.88-128t-121.918061-128l-55.35806-57.592243a93.339152 93.339152 0 0 0-31.371637-20.262788 95.992242 95.992242 0 0 0-36.755394-7.571394h-0.589575a95.681939 95.681939 0 0 0-35.933091 6.950788 96.007758 96.007758 0 0 0-31.387152 20.278303l-50.532848 54.690909-236.48194 253.44-69.445818 73.603879C33.605818 396.76897 0.015515 469.53503 0.015515 550.136242s33.590303 153.351758 87.552 205.017213a256.48097 256.48097 0 0 0 90.810182 58.39903 315.019636 315.019636 0 0 0 109.754182 18.49406z"  horiz-adv-x="1025" />
      
      <glyph glyph-name="favorite_01" unicode="&#59752;" d="M736.007758 768l2.358303 0.015515c29.494303 0 57.607758-5.880242 83.238787-16.539151a232.634182 232.634182 0 0 0 71.788607-50.284606 208.399515 208.399515 0 0 0 50.113939-71.959273c11.403636-26.437818 17.749333-55.652848 17.749333-86.326303s-6.345697-59.888485-17.780363-86.372849a217.848242 217.848242 0 0 0-51.789576-72.362666l-59.671273-61.905455q-56.645818-58.88-123.205818-128t-121.281939-128l-54.396122-56.645818a28.547879 28.547879 0 0 0-9.091878-6.004364 32.271515 32.271515 0 0 0-11.900122-3.584l-0.527515-0.015515a31.961212 31.961212 0 0 0-11.977697 2.311758 32.023273 32.023273 0 0 0-9.076363 6.019879l-50.222546 53.418666-114.874182 123.516121-121.607757 130.234182-69.756121 73.914182c-42.077091 40.122182-68.235636 96.597333-68.235637 159.20097s26.158545 119.078788 68.142546 159.123394a190.401939 190.401939 0 0 0 66.342788 45.707636 252.617697 252.617697 0 0 0 87.815757 14.537697c31.030303-0.806788 59.733333-10.736485 83.580121-27.213576a628.472242 628.472242 0 0 0 95.697455-75.388121l44.590545-42.992485 44.156122 43.845818a538.391273 538.391273 0 0 0 93.680484 73.231516c25.894788 17.408 54.75297 27.399758 85.876364 28.516848z m0 64A219.229091 219.229091 0 0 1 619.054545 794.701576a597.643636 597.643636 0 0 1-107.163151-83.130182 676.770909 676.770909 0 0 1-104.323879 81.982061c-35.607273 23.908848-75.915636 37.531152-119.32703 38.446545l-2.218667 0.015515c-37.701818 0-73.883152-6.562909-107.442424-18.618182a256.062061 256.062061 0 0 1-90.934303-57.902545C33.621333 703.751758 0.03103 631.001212 0.03103 550.4s33.590303-153.351758 87.552-205.017212l69.538909-73.69697 236.48194-253.765818 51.525818-54.721939a95.976727 95.976727 0 0 1 31.356121-20.247273c10.984727-4.421818 22.962424-6.888727 35.514182-6.950788h0.263758c12.706909 0 24.824242 2.466909 35.93309 6.950788a93.168485 93.168485 0 0 1 31.371637 20.262788l55.342545 57.576727q55.358061 57.607758 121.918061 128t122.88 128l57.281939 59.516121a283.523879 283.523879 0 0 1 65.225697 94.14594c14.599758 34.071273 22.667636 71.571394 22.667637 110.964363s-8.083394 76.908606-22.667637 110.948849a272.942545 272.942545 0 0 1-65.08606 94.037333 291.700364 291.700364 0 0 1-91.089455 63.394909 278.016 278.016 0 0 1-109.195636 22.171152h-0.868849z"  horiz-adv-x="1024" />
      
      <glyph glyph-name="blog_01" unicode="&#60024;" d="M832-64H128V832h480.007758v-224.007758h224.007757v-152.312242l64 64v152.312242L672.007758 896H128a64 64 0 0 1-64-64v-896A64 64 0 0 1 128-128h704a64 64 0 0 1 64 64v312.32l-64-64zM672.007758 805.438061l133.445818-133.445819h-133.445818z m24.312242-485.438061H224.007758v-64h408.312242z m-248.32 95.992242a32.007758 32.007758 0 0 1 32.007758 32.007758V512a32.007758 32.007758 0 0 1-32.007758 32.007758H256a32.007758 32.007758 0 0 1-32.007758-32.007758v-64c0-17.671758 14.320485-32.007758 32.007758-32.007758zM224.007758 95.992242h308.79806l21.44194 64H224.007758zM1003.52 491.52c-5.787152 5.756121-13.761939 9.309091-22.55903 9.309091s-16.771879-3.55297-22.559031-9.309091L618.883879 152.327758l-22.403879-67.847758 67.847758 22.403879L1003.52 446.401939c5.756121 5.787152 9.309091 13.761939 9.309091 22.559031s-3.55297 16.771879-9.309091 22.55903z"  horiz-adv-x="1024" />
      
      <glyph glyph-name="export" unicode="&#59750;" d="M832 896h-640A64 64 0 0 1 128 832v-896A64 64 0 0 1 192-128h640a64 64 0 0 1 64 64v96.007758a32.007758 32.007758 0 1 1-64.015515 0v-96.007758h-640V832h640v-96.007758a32.007758 32.007758 0 1 1 64.015515 0V832A64 64 0 0 1 832 896zM1024 384L832 576v-128h-512v-128h512v-128z"  horiz-adv-x="1024" />
      
      <glyph glyph-name="minus_01" unicode="&#59327;" d="M983.992035 583.356636a507.83143 507.83143 0 0 1-272.635399 272.635399A502.071528 502.071528 0 0 1 512 895.99136a502.071528 502.071528 0 0 1-199.356636-39.999325 507.83143 507.83143 0 0 1-272.635399-272.635399A502.071528 502.071528 0 0 1 0.00864 384a502.071528 502.071528 0 0 1 39.999325-199.356636 507.83143 507.83143 0 0 1 272.635399-272.635399A502.071528 502.071528 0 0 1 512-127.99136a502.071528 502.071528 0 0 1 199.356636 39.999325 507.83143 507.83143 0 0 1 272.635399 272.635399A502.071528 502.071528 0 0 1 1023.99136 384a502.071528 502.071528 0 0 1-39.999325 199.356636z m-59.518995-373.753693a463.032186 463.032186 0 0 0-95.99838-142.717592 451.832375 451.832375 0 0 0-142.077603-95.99838A430.392737 430.392737 0 0 0 512-63.99244a430.392737 430.392737 0 0 0-174.397057 35.5194 451.832375 451.832375 0 0 0-142.077602 95.998381 463.032186 463.032186 0 0 0-95.99838 142.717591A430.392737 430.392737 0 0 0 64.00756 384a430.392737 430.392737 0 0 0 35.519401 174.397057 451.192386 451.192386 0 0 0 238.075982 238.075983A430.392737 430.392737 0 0 0 512 831.99244a430.392737 430.392737 0 0 0 174.397057-35.5194 451.192386 451.192386 0 0 0 238.075983-238.075983A430.392737 430.392737 0 0 0 959.99244 384a430.392737 430.392737 0 0 0-35.5194-174.397057zM735.99622 415.99946H288.00378a31.99946 31.99946 0 0 1 0-63.99892h447.99244a31.99946 31.99946 0 0 1 0 63.99892z"  horiz-adv-x="1024" />
      
      <glyph glyph-name="minus_02" unicode="&#59329;" d="M983.992035 583.356636a507.83143 507.83143 0 0 1-272.635399 272.635399A502.071528 502.071528 0 0 1 512 895.99136a502.071528 502.071528 0 0 1-199.356636-39.999325 507.83143 507.83143 0 0 1-272.635399-272.635399A502.071528 502.071528 0 0 1 0.00864 384a502.071528 502.071528 0 0 1 39.999325-199.356636 507.83143 507.83143 0 0 1 272.635399-272.635399A502.071528 502.071528 0 0 1 512-127.99136a502.071528 502.071528 0 0 1 199.356636 39.999325 507.83143 507.83143 0 0 1 272.635399 272.635399A502.071528 502.071528 0 0 1 1023.99136 384a502.071528 502.071528 0 0 1-39.999325 199.356636zM767.99568 320.00108H256.00432a63.99892 63.99892 0 0 0 0 127.99784h511.99136a63.99892 63.99892 0 0 0 0-127.99784z"  horiz-adv-x="1024" />
      
      <glyph glyph-name="location" unicode="&#59319;" d="M797.26907 780.303477a366.825715 366.825715 0 0 0 74.005104-124.61323 441.829159 441.829159 0 0 0 25.649642-150.262872 467.094824 467.094824 0 0 0-32.049253-163.702055 1044.493347 1044.493347 0 0 0-79.124793-162.754912 1474.214441 1474.214441 0 0 0-104.134474-152.822716 3186.724806 3186.724806 0 0 0-105.081616-128.145816 120.927054 120.927054 0 0 0-15.051886-13.439183A53.193568 53.193568 0 0 0 526.591114-127.954947h-3.199806a53.50075 53.50075 0 0 0-35.581838 12.492041 108.793391 108.793391 0 0 0-14.411925 13.439184c-34.583499 40.16396-72.085221 83.962899-112.42837 131.345621a1468.505988 1468.505988 0 0 0-112.121189 149.62291 970.437046 970.437046 0 0 0-86.189963 160.195068A429.925882 429.925882 0 0 0 128.023327 505.427375c0 51.785654 10.930536 102.982544 32.049253 150.262872A402.714735 402.714735 0 0 0 243.037139 780.277878a393.140917 393.140917 0 0 0 124.920412 83.63012A366.185754 366.185754 0 0 0 517.631658 895.957251c55.036657 0.511969 109.561344-10.392969 160.16947-32.023655a340.228931 340.228931 0 0 0 119.49354-83.630119zM518.297217 755.652174l205.760301-198.055168a19.070841 19.070841 0 0 0 5.734051-14.027948 18.533274 18.533274 0 0 0-18.354085-18.635668h-19.070841v-168.181783a37.296934 37.296934 0 0 0-37.271336-37.424926h-93.485521V450.057939a18.789259 18.789259 0 0 1-18.661266 18.789259h-74.824255a18.789259 18.789259 0 0 1-18.661266-18.789259v-130.756857h-93.485521a37.296934 37.296934 0 0 0-37.271335 37.834502v168.181783h-17.662927a18.507676 18.507676 0 0 0-14.027948 5.75965 18.942849 18.942849 0 0 0 0 26.494391l205.7603 198.055168a18.354085 18.354085 0 0 0 25.521649 0z"  horiz-adv-x="1024" />
      
      <glyph glyph-name="plus_02" unicode="&#59326;" d="M983.992035 583.356636a507.83143 507.83143 0 0 1-272.635399 272.635399A502.071528 502.071528 0 0 1 512 895.99136a502.071528 502.071528 0 0 1-199.356636-39.999325 507.83143 507.83143 0 0 1-272.635399-272.635399A502.071528 502.071528 0 0 1 0.00864 384a502.071528 502.071528 0 0 1 39.999325-199.356636 507.83143 507.83143 0 0 1 272.635399-272.635399A502.071528 502.071528 0 0 1 512-127.99136a502.071528 502.071528 0 0 1 199.356636 39.999325 507.83143 507.83143 0 0 1 272.635399 272.635399A502.071528 502.071528 0 0 1 1023.99136 384a502.071528 502.071528 0 0 1-39.999325 199.356636zM767.99568 320.00108h-191.99676v-191.99676a63.99892 63.99892 0 0 0-127.99784 0v191.99676H256.00432a63.99892 63.99892 0 0 0 0 127.99784h191.99676V639.99568a63.99892 63.99892 0 0 0 127.99784 0v-191.99676h191.99676a63.99892 63.99892 0 0 0 0-127.99784z"  horiz-adv-x="1024" />
      
      <glyph glyph-name="activities_04" unicode="&#59651;" d="M896 832H128A128 128 0 0 1 0 704v-640a128 128 0 0 1 128-128h768a128 128 0 0 1 128 128v640a128 128 0 0 1-128 128z m-64-480.007758h-144.632242l-118.396122-147.843878a31.961212 31.961212 0 0 0-24.948363-12.163879h-4.809697a32.116364 32.116364 0 0 0-24.886303 19.626667l-101.515637 254.293333-64-128a32.023273 32.023273 0 0 0-28.73406-17.92h-128.062061a32.007758 32.007758 0 1 0 0 64.015515h108.156121l87.04 174.405818a32.038788 32.038788 0 0 0 28.578909 17.594182h0.232728a32.054303 32.054303 0 0 0 28.392727-19.952485l108.869818-268.055273 93.758061 117.123879a31.961212 31.961212 0 0 0 25.010424 10.876121h159.945697a32.007758 32.007758 0 1 0 0-64.015515z"  horiz-adv-x="1024" />
      
      <glyph glyph-name="arrow_01_down" unicode="&#59659;" d="M512 106.247758L73.278061 542.409697a32.116364 32.116364 0 1 0 45.428363 45.428364l393.278061-391.354182 393.27806 391.354182a32.023273 32.023273 0 0 0 45.133576-45.443879z"  horiz-adv-x="1024" />
      
      <glyph glyph-name="arrow_01_up" unicode="&#59662;" d="M512 597.116121L73.278061 159.992242a32.023273 32.023273 0 1 1 45.11806-45.443878L512 506.864485l393.278061-391.354182a32.007758 32.007758 0 1 1 45.505939 44.450909l-0.062061 0.046546z"  horiz-adv-x="1024" />
      
      <glyph glyph-name="map_01" unicode="&#59795;" d="M991.815831 761.252057a44.510681 44.510681 0 0 0 21.991688-15.555475c5.660766-7.010044 9.041717-15.896672 9.041717-25.558746v-820.935141l0.015509-0.961555c0-6.513758-2.434905-12.453685-6.436213-16.966789a21.355821 21.355821 0 0 0-15.865654-7.025554l-0.775448 0.015509h-7.645911l-320.197739 125.715532-319.872051-127.94882-319.872051 127.94882a44.169484 44.169484 0 0 0-21.991688 15.555475 40.54039 40.54039 0 0 0-9.041717 25.558746V871.629239A23.573601 23.573601 0 0 0 6.625423 889.262913a22.286358 22.286358 0 0 0 16.65661 6.374178h3.784183a8.855609 8.855609 0 0 0 5.179989-0.015509l319.810015-127.933312 319.872051 127.948821zM64.179128 809.546921V56.246301l255.897641-104.282165V715.174972z m319.872052-94.35644v-764.172391l255.89764 102.033368V815.626428z m575.769692-758.108393V703.667333l-255.897641 110.671853v-761.287728z"  horiz-adv-x="1024" />
      
      <glyph glyph-name="sort_04" unicode="&#59863;" d="M33.202046 831.39471h575.599523a31.985503 31.985503 0 1 1 0 63.971006H33.202046a31.985503 31.985503 0 1 1 0-63.971006z m447.688518-255.82201H33.202046a31.985503 31.985503 0 1 1 0-63.971007h447.688518a31.985503 31.985503 0 1 1 0 63.971007zM416.935061 255.795187H33.202046a31.985503 31.985503 0 1 1 0-63.971006h383.733015a31.985503 31.985503 0 1 1 0 63.971006z m0-319.777512H33.202046a31.985503 31.985503 0 1 1 0-63.971007h383.733015a31.985503 31.985503 0 1 1 0 63.971007z m598.933591 181.633627a31.907982 31.907982 0 0 1-23.349573 10.12435c-8.403365 0-16.047017-3.240412-21.768127-8.542905l-138.128381-127.8955V863.364709a31.985503 31.985503 0 1 1-63.971007 0v-872.678646l-138.143885 127.911005a31.985503 31.985503 0 0 1-43.474238-46.699145l213.588122-199.851255 213.619131 198.905489c6.728894 5.891658 10.946081 14.496581 10.946081 24.093782 0 8.821983-3.566004 16.806731-9.349132 22.589859z"  horiz-adv-x="1025" />
      
      <glyph glyph-name="arrow_04_left" unicode="&#59671;" d="M192 384l640 512v-1024l-640 512z"  horiz-adv-x="1024" />
      
      <glyph glyph-name="arrow_03_right" unicode="&#59667;" d="M832 384L192 896v-1024l640 512z"  horiz-adv-x="1024" />
      
      <glyph glyph-name="dislike" unicode="&#59315;" d="M415.75726 894.996824a1873.043247 1873.043247 0 0 0 260.224817-9.590595 180.942563 180.942563 0 0 0 68.732599-29.411159 127.874603 127.874603 0 0 1 50.830154-18.861504 1057.20328 1057.20328 0 0 1 134.58802-14.066206 63.937301 63.937301 0 0 0 14.385893-3.516552 22.378056 22.378056 0 0 0 10.549655-8.311849c0-2.237806 13.107147-25.574921 35.485202-70.650718a417.830265 417.830265 0 0 0 31.968651-182.22131 435.413023 435.413023 0 0 0-23.976488-167.515729c-15.984325-35.485202-24.296175-54.346706-24.935548-56.264826a39.32144 39.32144 0 0 0-11.828401-11.189028 31.968651 31.968651 0 0 0-15.984325-3.836238 185.737861 185.737861 0 0 1-86.635044-24.935547 392.894718 392.894718 0 0 1-94.307519-73.527897A735.278967 735.278967 0 0 1 671.506466 102.174285a1022.996824 1022.996824 0 0 1-83.438179-159.843253 348.138607 348.138607 0 0 0-24.935547-50.190782c-7.992163-12.467774-27.812726-18.861504-59.781377-18.861504a100.70125 100.70125 0 0 0-55.305766 17.582758 124.677738 124.677738 0 0 0-42.198619 42.518305 159.843254 159.843254 0 0 0-20.14025 63.937302 465.143868 465.143868 0 0 0-1.918119 77.044448 765.009812 765.009812 0 0 0 8.311849 81.52006c4.475611 26.53398 8.951222 49.551409 13.74652 68.732599H282.447986C232.576891 223.655158 191.976704 223.655158 164.803351 223.655158a138.424258 138.424258 0 0 0-95.905952 31.968651A109.013099 109.013099 0 0 0 32.133451 339.381674a360.60638 360.60638 0 0 0 1.918119 36.124575 114.44777 114.44777 0 0 0 7.033103 31.968651 242.961746 242.961746 0 0 0-26.53398 31.968651A82.479119 82.479119 0 0 0 0.1648 483.240602a92.389401 92.389401 0 0 0 15.664639 57.223885 292.193468 292.193468 0 0 0 31.968651 38.682067c-2.237806 6.074044-4.795298 13.426833-7.992163 21.738683a59.46169 59.46169 0 0 0-4.155925 27.49304 93.668147 93.668147 0 0 0 23.976488 60.740436 269.815412 269.815412 0 0 0 38.362381 37.083635A173.589774 173.589774 0 0 0 96.070752 753.056014a114.128083 114.128083 0 0 0 3.516552 31.968651A85.99567 85.99567 0 0 0 128.039403 834.89576 185.418174 185.418174 0 0 0 191.976704 869.102217 519.170888 519.170888 0 0 0 287.882657 888.603094a1124.97682 1124.97682 0 0 0 127.874603 6.39373z m496.792832-136.825825a1054.965474 1054.965474 0 0 0-134.588019 17.582757 182.860682 182.860682 0 0 0-72.888524 28.4521 116.046202 116.046202 0 0 1-53.387647 20.779623A2320.604357 2320.604357 0 0 1 415.75726 831.059522h-71.929465a723.770253 723.770253 0 0 1-80.880686-7.352789 306.579361 306.579361 0 0 1-67.773539-17.902445A51.469528 51.469528 0 0 1 160.008054 770.958459a63.937301 63.937301 0 0 1 19.18119-44.756111 31.968651 31.968651 0 0 0 0-24.615861 31.968651 31.968651 0 0 0-15.984325-17.263072l-31.968651-15.984325a50.830155 50.830155 0 0 1-31.968651-43.157679 36.444262 36.444262 0 0 1 7.033103-26.53398 67.134167 67.134167 0 0 0 7.992163-10.229968 30.050532 30.050532 0 0 0 4.475611-23.017428 37.403321 37.403321 0 0 0-12.467774-21.09931c-28.771786-22.697742-42.198619-42.198619-42.198619-58.822317a43.797052 43.797052 0 0 1 18.861504-34.206457 157.285762 157.285762 0 0 1 18.861504-12.78746 31.968651 31.968651 0 0 0 9.910282-9.590595 31.968651 31.968651 0 0 0 6.074044-12.467774 36.444262 36.444262 0 0 0 0-13.107147 31.968651 31.968651 0 0 0-5.754357-12.78746 118.603694 118.603694 0 0 1-15.984326-49.871095c0-26.214294 10.549655-41.559246 31.968651-46.034857a205.238738 205.238738 0 0 1 38.362381-7.033103h287.078484a31.968651 31.968651 0 0 0 15.984325-3.836238 31.968651 31.968651 0 0 0 10.869341-11.189028 22.058369 22.058369 0 0 0 5.434671-14.066207 40.2805 40.2805 0 0 0-2.237806-15.984325 525.244932 525.244932 0 0 1-20.459936-74.806643 659.193578 659.193578 0 0 1-12.148088-80.241313 464.504495 464.504495 0 0 1 0-72.568837 112.529651 112.529651 0 0 1 13.426834-50.830155l13.107147-20.14025c3.836238-6.074044 13.74652-8.951222 29.730845-8.951222a20.14025 20.14025 0 0 1 9.910281 5.114984 59.781377 59.781377 0 0 1 15.984326 24.935548 1100.041272 1100.041272 0 0 0 88.233476 171.351968 781.633511 781.633511 0 0 0 100.70125 127.874603 507.022801 507.022801 0 0 0 105.176861 82.479119A269.495726 269.495726 0 0 0 927.255672 383.498412a408.23967 408.23967 0 0 1 21.099309 61.060123 434.77365 434.77365 0 0 1 10.869341 113.808396 415.59246 415.59246 0 0 1-17.263071 127.874603 383.623809 383.623809 0 0 1-29.411159 72.568838z"  horiz-adv-x="1024" />
      
      <glyph glyph-name="like" unicode="&#59318;" d="M607.404364-126.996824a1873.043247 1873.043247 0 0 0-260.224817 9.590595 180.942563 180.942563 0 0 0-68.732599 29.411159 127.874603 127.874603 0 0 1-50.830155 18.861504 1057.20328 1057.20328 0 0 1-134.588019 14.066206 59.142004 59.142004 0 0 0-14.385893 3.516552 21.099309 21.099309 0 0 0-10.549655 8.311849c0 2.237806-13.107147 25.574921-35.485202 70.650718a417.830265 417.830265 0 0 0-31.968651 182.22131 435.413023 435.413023 0 0 0 23.976488 167.515729c15.984325 35.485202 24.296175 54.346706 24.935548 56.264826a39.32144 39.32144 0 0 0 11.8284 11.189028A31.968651 31.968651 0 0 0 76.724762 448.43889a185.737861 185.737861 0 0 1 86.635043 24.935547 392.894718 392.894718 0 0 1 95.905953 73.527897A735.278967 735.278967 0 0 1 351.655158 665.825715a1022.996824 1022.996824 0 0 1 83.438179 159.843253 348.138607 348.138607 0 0 0 23.656801 51.469528C466.742301 889.60627 486.562864 896 518.531515 896A100.70125 100.70125 0 0 0 575.435713 878.417242a124.677738 124.677738 0 0 0 42.198619-42.518305 159.843254 159.843254 0 0 0 20.14025-63.937302A465.143868 465.143868 0 0 0 639.373015 693.638441a765.009812 765.009812 0 0 0-8.311849-81.52006c-4.475611-26.53398-8.951222-49.551409-13.74652-68.732599H858.677959a138.424258 138.424258 0 0 0 95.905952-31.96865A109.013099 109.013099 0 0 0 991.028173 428.618326a360.60638 360.60638 0 0 0-1.918119-36.124575 114.44777 114.44777 0 0 0-7.033103-31.968651 242.961746 242.961746 0 0 0 26.53398-31.968651 82.479119 82.479119 0 0 0 14.385893-43.797051 92.389401 92.389401 0 0 0-15.664639-57.223885 319.686507 319.686507 0 0 0-31.968651-38.682067c2.237806-6.074044 4.795298-13.426833 7.992163-21.738683a59.46169 59.46169 0 0 0 4.155924-27.49304 93.668147 93.668147 0 0 0-23.976488-60.740436 269.815412 269.815412 0 0 0-39.960813-37.083635 173.589774 173.589774 0 0 0 2.557492-26.853666 114.128083 114.128083 0 0 0-3.516552-31.968651 85.99567 85.99567 0 0 0-27.493039-49.871095 185.418174 185.418174 0 0 0-63.937302-34.206457 519.170888 519.170888 0 0 0-95.905952-19.500877 1124.97682 1124.97682 0 0 0-127.874603-6.39373zM110.611532 9.829001a1054.965474 1054.965474 0 0 0 134.588019-17.582757 182.860682 182.860682 0 0 0 72.888524-28.4521 116.046202 116.046202 0 0 1 53.387647-20.779623A2320.604357 2320.604357 0 0 1 607.404364-63.059522c20.14025 0 44.116738 0 71.929464 1.598432a723.770253 723.770253 0 0 1 80.880687 7.35279 306.579361 306.579361 0 0 1 67.773539 17.902444 51.469528 51.469528 0 0 1 33.88677 31.968651 63.937301 63.937301 0 0 1-19.18119 44.756111 34.526143 34.526143 0 0 0 0 24.615861 27.49304 27.49304 0 0 0 16.304011 17.263072l31.968651 15.984325a49.871095 49.871095 0 0 1 31.968651 42.198619 38.042694 38.042694 0 0 1-7.033103 27.49304 67.134167 67.134167 0 0 0-7.992163 10.229968 30.050532 30.050532 0 0 0-4.475611 23.017428 37.403321 37.403321 0 0 0 12.467774 21.09931c27.49304 22.697742 40.919873 42.198619 40.919873 58.822317a43.797052 43.797052 0 0 1-18.861504 34.206457 157.285762 157.285762 0 0 1-18.861504 12.78746 31.968651 31.968651 0 0 0-9.910282 9.590595 31.968651 31.968651 0 0 0-6.074044 12.467774 36.444262 36.444262 0 0 0 0 13.107147 31.968651 31.968651 0 0 0 5.754358 12.78746 118.603694 118.603694 0 0 1 18.222131 51.149841c0 26.214294-10.549655 41.559246-30.370219 46.034857a205.238738 205.238738 0 0 1-38.362381 7.033103h-287.078483a31.968651 31.968651 0 0 0-15.984326 3.836238 31.968651 31.968651 0 0 0-10.869341 11.189028 22.058369 22.058369 0 0 0-5.43467 14.066207 40.2805 40.2805 0 0 0 2.237805 15.984325 525.244932 525.244932 0 0 1 20.459937 74.806643A659.193578 659.193578 0 0 1 575.435713 679.572234a464.504495 464.504495 0 0 1 0 72.568838 112.529651 112.529651 0 0 1-13.426833 50.830154l-13.107147 20.14025C543.467063 829.18552 534.51584 832.062699 518.531515 832.062699a20.14025 20.14025 0 0 1-9.910282-5.114985 59.781377 59.781377 0 0 1-15.984325-24.935547 1158.224216 1158.224216 0 0 0-88.233476-171.351968 781.633511 781.633511 0 0 0-100.70125-127.874603 507.022801 507.022801 0 0 0-105.176861-82.479119A269.495726 269.495726 0 0 0 95.905952 384.501588a408.23967 408.23967 0 0 1-21.099309-61.060123A434.77365 434.77365 0 0 1 63.937301 209.633069a415.59246 415.59246 0 0 1 17.263072-127.874603 383.623809 383.623809 0 0 1 29.411159-72.568838z"  horiz-adv-x="1024" />
      
      <glyph glyph-name="calendar_01" unicode="&#59311;" d="M960 832h-256V864a32 32 0 0 1-64 0v-32h-256V864a32 32 0 0 1-64 0v-32H64a64 64 0 0 1-64-64v-832a64 64 0 0 1 64-64h896a64 64 0 0 1 64 64V768a64 64 0 0 1-64 64z m0-896H64V768h256v-32a32 32 0 0 1 64 0V768h256v-32a32 32 0 0 1 64 0V768h256zM288 576H224a32 32 0 0 1-32-32v-64a32 32 0 0 1 32-32h64a32 32 0 0 1 32 32v64a32 32 0 0 1-32 32z m0-320H224a32 32 0 0 1-32-32v-64a32 32 0 0 1 32-32h64a32 32 0 0 1 32 32v64a32 32 0 0 1-32 32z m256 0h-64a32 32 0 0 1-32-32v-64a32 32 0 0 1 32-32h64a32 32 0 0 1 32 32v64a32 32 0 0 1-32 32z m160 224a32 32 0 0 1 32-32h64a32 32 0 0 1 32 32v64a32 32 0 0 1-32 32h-64a32 32 0 0 1-32-32z m96-224h-64a32 32 0 0 1-32-32v-64a32 32 0 0 1 32-32h64a32 32 0 0 1 32 32v64a32 32 0 0 1-32 32z m-256 320h-64a32 32 0 0 1-32-32v-64a32 32 0 0 1 32-32h64a32 32 0 0 1 32 32v64a32 32 0 0 1-32 32z"  horiz-adv-x="1024" />
      
      <glyph glyph-name="pre-approval_02" unicode="&#59312;" d="M560.64-64H64V832h704v-449.92a267.52 267.52 0 0 0 64 0V832a64 64 0 0 1-64 64H64a64 64 0 0 1-64-64v-896a64 64 0 0 1 64-64h555.2a278.4 278.4 0 0 0-58.56 64z m0 320H154.56v-64h374.08a291.84 291.84 0 0 0 32 64zM160 128v-64h353.92a267.52 267.52 0 0 0 0 64z m442.56 256V590.72a32 32 0 0 1-14.4 26.88l-160 106.56a32 32 0 0 1-17.6 5.44 32 32 0 0 1-17.92-5.44l-160-106.56a32 32 0 0 1-14.08-26.88V384a32 32 0 0 1 32-32h320a32 32 0 0 1 32 32z m-64 32h-64v64a32 32 0 0 1-32 32h-64a32 32 0 0 1-32-32v-64h-64v157.76l128 85.44 128-85.44zM800 320a224 224 0 1 1 224-224 224 224 0 0 1-224 224z m90.56-269.12a32 32 0 0 0 0-45.44 32 32 0 0 0-22.72-9.28 32 32 0 0 0-22.72 9.28L800 50.88l-45.12-45.44a32 32 0 0 0-22.72-9.28 32 32 0 0 0-22.72 9.28 32 32 0 0 0 0 45.44L754.88 96l-45.44 45.12a32 32 0 0 0 45.44 45.44L800 141.12l45.12 45.44a32 32 0 0 0 45.44-45.44L845.12 96z"  horiz-adv-x="1024" />
      
      <glyph glyph-name="pre-approval" unicode="&#59314;" d="M560.64 256H154.56v-64h374.08a291.84 291.84 0 0 0 32 64z m0-320H64V832h704v-449.92a267.52 267.52 0 0 0 64 0V832a64 64 0 0 1-64 64H64a64 64 0 0 1-64-64v-896a64 64 0 0 1 64-64h555.2a278.4 278.4 0 0 0-58.56 64zM160 128v-64h353.92a267.52 267.52 0 0 0 0 64z m442.56 256V590.72a32 32 0 0 1-14.4 26.88l-160 106.56a32 32 0 0 1-17.6 5.44 32 32 0 0 1-17.92-5.44l-160-106.56a32 32 0 0 1-14.08-26.88V384a32 32 0 0 1 32-32h320a32 32 0 0 1 32 32z m-64 32h-64v64a32 32 0 0 1-32 32h-64a32 32 0 0 1-32-32v-64h-64v157.76l128 85.44 128-85.44zM800 320a224 224 0 1 1 224-224 224 224 0 0 1-224 224z m126.08-170.88L768-14.72l-99.2 90.88a24 24 0 1 0 32 35.52l64-59.52 125.44 130.56a24 24 0 1 0 34.56-33.6z"  horiz-adv-x="1024" />
      
      <glyph glyph-name="house_17" unicode="&#59308;" d="M963.84 613.44L528.96 885.44a32 32 0 0 1-33.92 0L60.16 613.44A128 128 0 0 1 0 504.96V0a128 128 0 0 1 128-128h768a128 128 0 0 1 128 128V504.96a128 128 0 0 1-60.16 108.48zM960 0a64 64 0 0 0-64-64H128a64 64 0 0 0-64 64V504.96a64 64 0 0 0 30.08 54.4L512 820.48l417.92-261.12a64 64 0 0 0 30.08-54.4z m-362.56 301.44a584 584 0 0 1-66.88 19.2 307.84 307.84 0 0 0-58.88 17.92 28.8 28.8 0 0 0-19.2 27.2 34.56 34.56 0 0 0 16.64 29.76 96 96 0 0 0 51.52 11.2 199.36 199.36 0 0 0 99.52-28.16l25.6 64a199.68 199.68 0 0 1-57.6 23.68 288 288 0 0 1-44.16 5.76V544h-64v-73.92a164.16 164.16 0 0 1-41.92-11.52 112.96 112.96 0 0 1-50.88-40.32 96 96 0 0 1-16.96-56.64 84.48 84.48 0 0 1 18.56-57.28 108.16 108.16 0 0 1 44.8-32 526.08 526.08 0 0 1 67.2-19.52c17.6-4.16 32-8 42.24-11.2a77.76 77.76 0 0 0 25.6-13.76 26.24 26.24 0 0 0 9.92-21.12 32 32 0 0 0-16.96-27.84 100.16 100.16 0 0 0-52.16-10.56 198.72 198.72 0 0 0-64 10.24 180.48 180.48 0 0 0-55.04 27.2l-28.16-64a198.4 198.4 0 0 1 64-29.76 267.84 267.84 0 0 1 53.12-9.6V32h64v72.96a192 192 0 0 1 48.32 12.48 114.88 114.88 0 0 1 51.52 40.32 96 96 0 0 1 17.28 56 82.56 82.56 0 0 1-18.88 56.96 114.56 114.56 0 0 1-44.16 30.72z"  horiz-adv-x="1024" />
      
      <glyph glyph-name="house_15" unicode="&#59309;" d="M963.84 613.44L528.96 885.44a32 32 0 0 1-33.92 0L60.16 613.44A128 128 0 0 1 0 504.96V0a128 128 0 0 1 128-128h768a128 128 0 0 1 128 128V504.96a128 128 0 0 1-60.16 108.48zM960 0a64 64 0 0 0-64-64H128a64 64 0 0 0-64 64V504.96a64 64 0 0 0 30.08 54.4L512 820.48l417.92-261.12a64 64 0 0 0 30.08-54.4z m-256 384h-306.88l41.6 41.28a32 32 0 0 1-45.44 45.44l-96-96a32 32 0 0 1-6.72-34.88A32 32 0 0 1 320 320h384a32 32 0 0 1 0 64z m0-160H320a32 32 0 0 1 0-64h306.88l-41.6-41.28a32 32 0 0 1 0-45.44 32 32 0 0 1 45.44 0l96 96a32 32 0 0 1 6.72 34.88A32 32 0 0 1 704 224z"  horiz-adv-x="1024" />
      
      <glyph glyph-name="send_03" unicode="&#59993;" d="M0 554.558061L1024 896 682.558061-128 469.441939 256l277.116122 362.558061L384 341.441939 0 554.558061z"  horiz-adv-x="1024" />
      
      <glyph glyph-name="calendar_05" unicode="&#59306;" d="M576 832h-128v-64h128z m320 0h-128v-64h128v-192H128V768h128V832H128a64 64 0 0 1-64-64v-832a64 64 0 0 1 64-64h768a64 64 0 0 1 64 64V768a64 64 0 0 1-64 64z m0-896H128V512h768zM352 704a32 32 0 0 1 32 32V864a32 32 0 0 1-64 0v-128a32 32 0 0 1 32-32z m320 0a32 32 0 0 1 32 32V864a32 32 0 0 1-64 0v-128a32 32 0 0 1 32-32z m48-288h-76.8l-179.52-271.04-83.2 122.56H304l160-235.52z"  horiz-adv-x="1024" />
      
      <glyph glyph-name="hot" unicode="&#59304;" d="M771.965613 565.886335c-36.008366 46.247712-32.879677-99.321654-74.860995-77.07952-42.038203 22.185249-29.750988 326.692017-284.596928 404.795472-101.824606 31.173119 40.388531-249.555612-114.566903-379.140222C142.928468 384.93434-76.364188 103.35233 422.69015-127.943115c0 0-258.486597 307.862998 74.80411 488.24614 76.453782 41.35558-24.972627-102.791655 99.776737-205.58331S597.327882-127.943115 597.327882-127.943115s566.861562 188.631504 174.637731 693.82945z"  horiz-adv-x="1024" />
      
      <glyph glyph-name="CLOSELY1" unicode="&#59303;" d="M814.438231 771.329865C648.211384 937.556712 375.428866 937.556712 209.202019 771.329865 42.975172 605.103018 42.975172 336.582726 209.202019 170.355879c55.408949-55.408949 149.17794-149.17794 289.831425-294.093652 4.262227-4.262227 17.048907-4.262227 21.311134 0 140.653486 140.653486 234.422477 238.684703 289.831426 294.093652 170.489074 166.226847 170.489074 434.747138 4.262227 600.973986z m-298.355879-609.498439c-170.489074 0-306.880333 136.391259-306.880333 306.880333s136.391259 306.880333 306.880333 306.880333c85.244537 0 161.96462-34.097815 217.373569-89.506764l-55.408949-55.408949c-42.622268 42.622268-98.031217 68.19563-161.96462 68.195629-123.604579 0-225.898023-102.293444-225.898023-225.898023s102.293444-225.898023 225.898023-225.898022c63.933403 0 119.342352 25.573361 161.96462 68.195629l55.408949-55.408949c-55.408949-63.933403-132.129032-98.031217-217.373569-98.031217z m242.94693 213.111342c-51.146722 0-89.506764 42.622268-89.506764 89.506764s42.622268 89.506764 89.506764 89.506764c51.146722 0 89.506764-42.622268 89.506764-89.506764s-38.360042-89.506764-89.506764-89.506764z"  horiz-adv-x="1024" />
      
      <glyph glyph-name="Star" unicode="&#59301;" d="M538.947368 896l158.396632-320.943158 354.196211-51.469474-256.323369-249.802105 60.52379-352.741052L538.947368 87.578947l-316.793263-166.534736 60.52379 352.741052L26.354526 523.587368l354.196211 51.469474L538.947368 896z"  horiz-adv-x="1077" />
      
      <glyph glyph-name="arrow_08_right" unicode="&#59295;" d="M365.12 813.12L274.88 722.88 613.44 384 274.88 45.12l90.24-90.24L794.56 384z"  horiz-adv-x="1024" />
      
      <glyph glyph-name="arrow_08_up" unicode="&#59296;" d="M941.12 237.12l-90.24-90.24L512 485.44 173.12 146.88l-90.24 90.24L512 666.56z"  horiz-adv-x="1024" />
      
      <glyph glyph-name="arrow_08_left" unicode="&#59298;" d="M658.88 813.12l90.24-90.24L410.56 384l338.56-338.88-90.24-90.24L229.44 384z"  horiz-adv-x="1024" />
      
      <glyph glyph-name="arrow_08_down" unicode="&#59300;" d="M82.88 530.88l90.24 90.24L512 282.56 850.88 621.12l90.24-90.24L512 101.44z"  horiz-adv-x="1024" />
      
      <glyph glyph-name="checked_bold" unicode="&#59292;" d="M395.59328 15.36L21.19328 358.4a59.84 59.84 0 1 0 80.96 88l288-264L922.63328 734.4a59.84 59.84 0 0 0 86.08-83.2z"  horiz-adv-x="1025" />
      
      <glyph glyph-name="stable" unicode="&#59290;" d="M896 512H128v-256h768v256z"  horiz-adv-x="1024" />
      
      <glyph glyph-name="arrow_03_up" unicode="&#59291;" d="M512 704L0 64h1024L512 704z"  horiz-adv-x="1024" />
      
      <glyph glyph-name="Virtual" unicode="&#59287;" d="M512 896L68.48 640v-512l443.52-256 443.52 256V640zM132.48 165.12v384L480 364.8v-400.64z m379.52 255.36l-359.04 192 359.04 209.92 346.88-200.32z m380.16-256l-348.16-200.32V365.44l347.52 200.96z"  horiz-adv-x="1024" />
      
      <glyph glyph-name="Video" unicode="&#59284;" d="M1181.478845 895.971645H78.785106C56.652468 895.971645 37.82791 888.725372 22.153906 874.232826A67.264318 67.264318 0 0 1 0.021268 822.800039V-54.707885a70.887455 70.887455 0 0 1 22.132638-52.614244C37.82791-121.105801 56.731231-127.958255 78.785106-127.958255h1102.693739a78.212492 78.212492 0 0 1 55.370978 20.557362 69.075886 69.075886 0 0 1 23.39286 52.614244V822.721275a65.689041 65.689041 0 0 1-23.39286 51.432787A75.92834 75.92834 0 0 1 1181.478845 895.971645zM236.312783-54.786649H78.785106V128.02422h157.527677v-182.810869z m0 255.982475H78.785106V347.460274h157.527677v-146.264448z m0 219.35729H78.785106V566.817564h157.527677v-146.264448zM236.312783 639.98917H78.785106V822.800039h157.527677V639.98917z m708.874546-694.775819H315.076622V822.721275h630.110707V-54.707885z m236.291516 0h-157.527677V128.02422h157.527677v-182.810869z m0 255.982475h-157.527677V347.460274h157.527677v-146.264448z m0 219.35729h-157.527677V566.817564h157.527677v-146.264448z m0 219.436054h-157.527677V822.800039h157.527677V639.98917zM487.333136 217.184885l6.222344-2.362915h8.585258c0-0.708875 0.393819-1.102694 1.260221-1.102694h3.623137c0.787638 0 1.654041 0.393819 2.520443 1.181458h3.7019c1.575277 0.787638 2.835498 1.496513 3.623137 2.284151l255.982475 143.980297a40.01203 40.01203 0 0 1 6.222343 4.568302l4.883358 4.568303 2.441679 6.852454a23.629152 23.629152 0 0 1 0 14.886365 42.69 42.69 0 0 1-2.362915 5.670997 38.121698 38.121698 0 0 1-4.962122 5.74976 19.218377 19.218377 0 0 1-4.962122 3.386845L516.94834 550.828505l-7.403801 2.362915c0 0.708875-0.393819 1.102694-1.260222 1.102694h-4.883358l-1.260221-1.181458h-7.403801l-7.325037-2.284151a14.177491 14.177491 0 0 1-9.84548-9.136605 28.039926 28.039926 0 0 1-3.7019-6.852454 14.965129 14.965129 0 0 1-1.260221-6.852454v-287.960594a23.629152 23.629152 0 0 1 1.260221-8.033911c0.787638-1.496513 2.04786-3.386845 3.623137-5.670997a14.177491 14.177491 0 0 1 9.845479-9.136605z"  horiz-adv-x="1260" />
      
      <glyph glyph-name="Heart" unicode="&#59285;" d="M904.987569 822.823385h2.441846c18.038154 0 35.682462-1.890462 52.854154-5.671385 17.250462-3.072 34.028308-7.640615 50.412308-13.705846 16.384-6.852923 31.980308-15.281231 46.710154-25.206154 14.808615-9.058462 28.356923-19.692308 40.644923-31.980308 13.863385-11.421538 25.757538-23.945846 35.603692-37.651692 10.712615-13.784615 19.298462-28.593231 25.836308-44.583385 7.404308-15.281231 12.681846-31.271385 15.990154-48.04923a215.433846 215.433846 0 0 0 0-101.691077c-3.308308-16.777846-8.664615-32.374154-15.990154-46.867693a262.222769 262.222769 0 0 0-27.017846-45.686153 268.209231 268.209231 0 0 0-35.682462-37.730462l-73.806769-70.892308c-46.710154-44.898462-97.122462-93.735385-151.236923-146.274461a7127.04 7127.04 0 0 1-148.716308-146.274462l-67.662769-63.960615-4.883692-4.568616a51.2 51.2 0 0 0-6.144-2.363076 32.295385 32.295385 0 0 0-7.404308-3.387077 24.733538 24.733538 0 0 0-7.404308-1.10277h-8.664615a48.600615 48.600615 0 0 0-6.065231 2.284308 49.860923 49.860923 0 0 0-6.144 2.284308l-4.962461 4.568615-62.700308 61.676308-141.390769 140.603077-148.795077 149.661538-86.016 83.495385a285.065846 285.065846 0 0 0-61.44 82.235077 232.526769 232.526769 0 0 0-22.212923 100.588307c0 35.84 7.404308 69.316923 22.134153 100.588308a270.178462 270.178462 0 0 0 61.44 81.132308 220.396308 220.396308 0 0 0 81.132308 51.436308c16.541538 6.065231 33.240615 10.24 50.491077 12.603076 18.038154 2.993231 36.076308 4.489846 54.114462 4.489847h3.702153c18.825846-0.787692 36.864-3.780923 54.035693-9.137231 18.116923-5.277538 34.500923-12.603077 49.230769-21.661539 21.267692-12.996923 41.747692-26.702769 61.44-41.196307 19.692308-14.414769 38.124308-29.696 55.374769-45.686154l55.296-49.152 54.114462 50.333538c17.250462 15.990154 35.209846 30.798769 54.114461 44.504616 19.692308 14.493538 40.172308 27.490462 61.44 38.912 15.596308 10.633846 31.980308 18.668308 49.23077 23.945846 18.038154 5.356308 36.864 8.428308 56.556307 9.137231z m0 73.176615c-27.096615-0.787692-52.854154-4.962462-77.508923-12.603077a256.787692 256.787692 0 0 1-66.402461-29.696c-24.576-14.493538-47.891692-29.696-70.104616-45.686154-21.267692-15.281231-41.747692-31.665231-61.44-49.152-19.692308 16.777846-40.172308 33.083077-61.44 49.152a758.705231 758.705231 0 0 1-66.402461 44.583385 333.981538 333.981538 0 0 1-70.104616 30.798769A287.901538 287.901538 0 0 1 354.154338 896H352.894031h-1.260308c-22.921846 0-45.449846-1.890462-67.584-5.750154a432.285538 432.285538 0 0 1-63.960615-15.990154c-21.267692-6.852923-41.353846-15.990154-60.258462-27.411692-18.904615-10.633846-36.076308-23.630769-51.593846-38.833231a321.693538 321.693538 0 0 1-79.950769-103.975384A304.128 304.128 0 0 1 0.007877 573.597538c0-45.686154 9.452308-88.694154 28.278154-129.102769 19.692308-40.408615 46.316308-75.460923 79.950769-105.156923L192.992492 256l291.446154-290.264615 62.621539-62.857847c5.750154-4.568615 11.894154-9.137231 18.432-13.705846 6.616615-3.859692 13.154462-6.852923 19.692307-9.13723 7.404308-2.363077 14.808615-4.253538 22.134154-5.750154a115.554462 115.554462 0 0 1 45.528616 0c7.325538 1.575385 14.336 3.387077 20.873846 5.750154 7.404308 2.284308 14.336 5.277538 20.952615 9.13723 6.537846 4.568615 12.603077 9.137231 18.432 13.705846l67.584 66.244924c45.134769 43.480615 95.074462 92.16 150.055385 146.274461 54.035692 53.326769 104.448 102.163692 151.236923 146.353231l70.104615 67.426461c17.171692 15.202462 32.295385 31.980308 45.449846 50.25477a297.747692 297.747692 0 0 1 34.422154 57.107692c8.979692 19.849846 15.990154 40.408615 20.873846 61.755077a293.809231 293.809231 0 0 1-20.873846 191.960615 284.199385 284.199385 0 0 1-34.422154 58.289231 268.051692 268.051692 0 0 1-45.528615 49.152 328.861538 328.861538 0 0 1-51.593846 41.196308 404.164923 404.164923 0 0 1-60.258462 31.980307 302.473846 302.473846 0 0 1-65.142154 18.274462A339.495385 339.495385 0 0 1 906.169108 896h-1.181539z"  horiz-adv-x="1260" />
      
      <glyph glyph-name="location_02" unicode="&#59941;" d="M870.4 655.996121c-17.221818 48.143515-42.356364 89.56897-74.20897 124.803879l0.279273-0.325818a346.484364 346.484364 0 0 1-117.108364 82.664727l-2.249697 0.853333C630.939152 884.224 577.132606 896 520.564364 896l-3.646061-0.015515h0.186182a366.002424 366.002424 0 0 1-151.738182-32.938667l2.296242 0.946424c-48.438303-20.759273-89.848242-48.919273-124.834909-83.54909l0.031031 0.03103a406.434909 406.434909 0 0 1-81.873455-121.856l-1.008485-2.622061c-20.138667-44.140606-31.899152-95.728485-32.007757-150.04703v-0.03103a427.876848 427.876848 0 0 1 35.638303-168.851394l-1.070546 2.761697c26.313697-61.548606 55.125333-114.129455 88.312243-163.514182l-2.218667 3.521939c37.236364-56.444121 74.069333-105.192727 113.69503-151.474424l-1.691151 2.032485q60.478061-71.043879 112.64-130.885818c4.375273-4.902788 9.076364-9.309091 14.165333-13.265455l0.232727-0.170667a52.19297 52.19297 0 0 1 35.591758-12.474181h-0.077576H526.739394c13.063758 0 25.041455 4.716606 34.288485 12.551757l-0.077576-0.06206c5.585455 4.142545 10.503758 8.548848 14.972121 13.37406l0.062061 0.062061q48.965818 55.994182 104.96 128a1470.712242 1470.712242 0 0 1 100.243394 145.904485l3.754666 6.733575c28.222061 46.017939 54.784 99.436606 76.629334 155.244606l2.420363 6.997334c19.595636 48.391758 31.294061 104.494545 31.992243 163.234909v0.294788 2.11006c0 53.061818-9.386667 103.920485-26.577455 151.024485l0.977455-3.056485z m-244.798061-256a151.00897 151.00897 0 0 0-113.757091-48.003879H512c-87.924364 1.070545-158.937212 72.067879-159.992242 159.899152v0.108606c0 88.358788 71.633455 160.007758 160.007757 160.007758 88.358788 0 160.007758-71.633455 160.007758-160.007758l0.015515-2.048c0-43.504485-17.749333-82.850909-46.405818-111.212606l-0.015515-0.015515z"  horiz-adv-x="1024" />
      
      <glyph glyph-name="arrow_06" unicode="&#59280;" d="M319.277176 630.121412a22.588235 22.588235 0 1 1 0.331295-45.025883l364.634353 3.97553L255.578353 160.376471a22.588235 22.588235 0 1 1 31.954823-31.924706L716.197647 557.146353l-3.975529-364.664471a22.588235 22.588235 0 0 1 22.497882-22.528 22.588235 22.588235 0 0 1 22.528 22.528l4.969412 442.608942-442.940236-4.969412z"  horiz-adv-x="1024" />
      
      <glyph glyph-name="arrow_06_left" unicode="&#59278;" d="M992 416H133.12L502.4 777.28a32 32 0 1 1-44.8 45.44L8.96 384l448-438.72a32 32 0 0 1 45.12 0 32 32 0 0 1 0 45.12L133.12 352H992a32 32 0 0 1 0 64z"  horiz-adv-x="1024" />
      
      <glyph glyph-name="arrow_06_right" unicode="&#59279;" d="M566.4 822.72a32 32 0 1 1-44.8-45.44L890.88 416H32a32 32 0 0 1 0-64h858.88L521.6-9.28a32 32 0 0 1 0-45.12 32 32 0 0 1 45.12 0L1015.04 384z"  horiz-adv-x="1024" />
      
      <glyph glyph-name="Vector" unicode="&#59276;" d="M768 896H128a64 64 0 0 1-64-64v-768a64 64 0 0 1 64-64V832h704a64 64 0 0 1-64 64z m128-128H192v-832a64 64 0 0 1 64-64h640a64 64 0 0 1 64 64V704a64 64 0 0 1-64 64z m0-832H256V704h640v-768z m-352 192h64V288H768v64H608V512h-64v-160H384v-64h160V128z"  horiz-adv-x="1024" />
      
      <glyph glyph-name="design_01" unicode="&#59275;" d="M114.24 555.52l45.76-45.12 80.96-81.28 45.44 45.44-81.92 80.96L340.48 691.52l80.96-81.28 45.44 45.44L272.32 849.92a64 64 0 0 1-90.24 0L46.08 713.92a64 64 0 0 1 0-90.24L114.24 555.52zM227.2 804.48L295.04 736 160 600.96 91.52 668.8l135.68 135.68z m556.48-465.6l-45.44-45.44 153.28-153.28 27.2-162.88-162.88 27.2-153.28 153.28-45.44-45.44 168-167.68 249.28-40.64h2.88a15.936 15.936 0 0 1 15.68 18.56l-41.6 249.28-167.68 167.04z m203.52 384l-135.68 136.32a64 64 0 0 1-90.56 0L36.8 135.04a64 64 0 0 1 0-90.56l135.68-135.68a64 64 0 0 1 45.44-18.56 64 64 0 0 1 45.12 18.56L987.2 632.96a64 64 0 0 1 0 90.56v-0.64z m-768-768l-136.96 135.04 158.08 160 68.16-67.84 45.12 41.92-67.84 69.44 135.68 135.68 67.84-67.84 45.44 45.44-67.84 67.84 135.68 135.68 69.44-67.84 45.12 45.12-69.44 68.16 160 158.08 136-136-724.48-722.88z"  horiz-adv-x="1024" />
      
      <glyph glyph-name="copy_02" unicode="&#59274;" d="M896 768H192v-832a64 64 0 0 1 64-64h640a64 64 0 0 1 64 64V704a64 64 0 0 1-64 64z m0-832H256V704h640v-768zM768 896H128a64 64 0 0 1-64-64v-768a64 64 0 0 1 64-64V832h704a64 64 0 0 1-64 64z"  horiz-adv-x="1024" />
      
      <glyph glyph-name="rma" unicode="&#59272;" d="M3450.348052 836.820779c0 26.996364 21.543896 49.072208 48.407273 49.072208 26.996364 0 48.806234-22.075844 48.806233-49.072208 0-26.996364-21.80987-49.205195-48.806233-49.205195-26.863377 0-48.407273 22.208831-48.407273 49.205195z m10.372987 0c0-22.341818 16.756364-39.497143 38.034286-39.497143 21.277922 0 38.034286 17.155325 38.034285 39.497143 0 22.341818-16.756364 39.364156-38.034285 39.364156-21.277922 0-38.034286-17.022338-38.034286-39.364156z m31.916883 2.393766h6.915325c5.984416 0 9.309091 2.925714 9.309091 7.846234 0 5.186494-3.324675 8.112208-9.309091 8.112208h-6.915325v-15.958442z m0-8.777142v-19.948052h-10.107013V863.95013h18.485195c10.372987 0 18.086234-7.314286 18.086234-16.756364 0-7.447273-4.787532-13.564675-11.702857-15.825454l11.968831-20.878961h-11.56987l-11.17091 19.948052h-3.98961zM130.287377 4.987013h3180.969558c58.846753 0 106.509299 47.596052 106.509299 106.309818V776.391481C3417.766234 835.198338 3370.077091 882.701299 3311.256935 882.701299H106.522597C47.662545 882.701299 0 835.105247 0 776.391481v-901.691845L130.287377 4.987013zM403.216623 561.936623c-5.319481 1.595844-13.298701 2.65974-21.277922 2.659741-21.277922 0-54.790649-8.511169-68.621298-38.30026v35.640519h-78.196364V297.558442h80.856104v115.432727c0 52.662857 29.257143 71.812987 61.705974 71.812987 7.979221 0 16.49039-0.531948 25.533506-2.65974v79.792207z m18.046338-191.501298c0 46.811429 34.576623 73.408831 78.196364 79.792207l62.237922 9.575065c14.362597 2.127792 19.15013 9.043117 19.15013 18.086234 0 15.426494-13.298701 28.725195-38.832208 28.725195-28.193247 0-43.61974-19.15013-45.215585-38.832208l-70.217142 14.362598c3.191688 37.768312 38.30026 87.771429 115.964675 87.771428 85.643636 0 117.028571-47.875325 117.028571-102.134026v-129.263376c0-20.745974 2.65974-38.30026 3.191689-40.96h-72.876883c-0.531948 2.127792-2.65974 11.702857-2.659741 29.78909-13.830649-22.341818-39.364156-37.236364-74.472727-37.236363-57.982338 0-91.495065 38.30026-91.495065 80.324156z m111.177143-21.80987c23.937662 0 48.407273 11.702857 48.407273 52.662857v11.702857l-50.003117-7.979221c-17.022338-2.65974-29.789091-10.638961-29.789091-29.257143 0-13.830649 9.043117-27.129351 31.384935-27.12935z m272.304208 290.443636h-72.344935v-34.044675c0-24.46961-13.298701-43.087792-40.96-43.087793h-13.298702v-70.749091h46.811429v-113.304935c0-52.662857 33.512727-85.111688 88.303377-85.111688 25.533506 0 38.832208 5.851429 42.023896 7.447273v67.025454c-4.787532-1.063896-12.766753-2.65974-21.277922-2.65974-17.554286 0-29.257143 5.851429-29.257143 27.661299v98.942337h51.598961v70.749091h-51.598961v77.132468zM954.713766 461.398442h105.857663c-1.063896 20.214026-14.894545 44.683636-53.194806 44.683636-34.044675 0-51.067013-25.001558-52.662857-44.683636z m111.709091-68.621299l67.557403-19.15013c-12.766753-45.747532-54.790649-84.047792-121.816104-84.047792-72.876883 0-137.774545 52.130909-137.774546 140.966234 0 85.111688 63.301818 139.37039 131.923117 139.370389 81.92 0 132.455065-50.535065 132.455065-135.646753 0-11.170909-1.063896-23.405714-1.595844-25.001559H953.117922c1.595844-29.789091 28.725195-51.067013 60.11013-51.067013 29.257143 0 45.747532 13.830649 53.194805 34.576624zM1230.222961 297.558442V451.823377c0 38.30026 23.937662 64.897662 59.578182 64.897662 38.30026 0 54.258701-25.533506 54.258701-58.514286V297.558442h50.003117V452.355325c0 36.704416 23.937662 64.365714 59.046234 64.365714 37.768312 0 54.258701-25.001558 54.258701-58.514286V297.558442h49.471169V463.526234c0 67.025455-43.61974 97.346494-88.303377 97.346493-32.448831 0-65.42961-11.702857-85.643636-48.407272-13.830649 32.980779-44.683636 48.407273-76.60052 48.407272-29.789091 0-61.705974-13.298701-77.664415-41.491948v34.044676h-47.875325V297.558442h49.471169z m453.166545-106.921559l166.499741 362.788572h-53.726753l-76.60052-176.606754-79.792208 176.606754h-57.450389l110.113246-227.673767-63.833766-135.114805h54.790649zM1857.828571 370.435325c0 46.811429 34.576623 73.408831 78.196364 79.792207l62.237922 9.575065c14.362597 2.127792 19.15013 9.043117 19.15013 18.086234 0 15.426494-13.298701 28.725195-38.832208 28.725195-28.193247 0-43.61974-19.15013-45.215584-38.832208l-70.217143 14.362598c3.191688 37.768312 38.30026 87.771429 115.964675 87.771428 85.643636 0 117.028571-47.875325 117.028572-102.134026v-129.263376c0-20.745974 2.65974-38.30026 3.191688-40.96h-72.876883c-0.531948 2.127792-2.65974 11.702857-2.65974 29.78909-13.830649-22.341818-39.364156-37.236364-74.472728-37.236363-57.982338 0-91.495065 38.30026-91.495065 80.324156z m111.177143-21.80987c23.937662 0 48.407273 11.702857 48.407273 52.662857v11.702857l-50.003117-7.979221c-17.022338-2.65974-29.789091-10.638961-29.789091-29.257143 0-13.830649 9.043117-27.129351 31.384935-27.12935z m157.948676-65.961559l71.281039 20.214026c5.319481-25.533506 26.597403-44.151688 56.918441-44.151688 40.428052 0 65.42961 19.682078 65.429611 67.557402v12.234806c-9.575065-14.362597-32.448831-29.789091-70.749091-29.789091-70.217143 0-122.88 55.322597-122.88 128.731428 0 69.685195 50.535065 129.263377 122.88 129.263377 43.087792 0 65.961558-19.15013 73.408831-32.980779v28.193246h77.132467v-231.397402c0-76.068571-42.555844-142.03013-141.498182-142.03013-76.068571 0-124.475844 46.811429-131.923116 94.154805z m137.774545 96.282598c32.980779 0 56.386494 22.341818 56.386494 58.514285 0 36.172468-26.065455 58.514286-56.386494 58.514286-30.321039 0-56.918442-22.341818-56.918441-58.514286 0-36.172468 24.46961-58.514286 56.918441-58.514285z m247.834597 82.451948h105.857663c-1.063896 20.214026-14.894545 44.683636-53.194805 44.683636-34.044675 0-51.067013-25.001558-52.662858-44.683636z m111.709091-68.621299l67.557403-19.15013c-12.766753-45.747532-54.790649-84.047792-121.816104-84.047792-72.876883 0-137.774545 52.130909-137.774545 140.966234 0 85.111688 63.301818 139.37039 131.923117 139.370389 81.92 0 132.455065-50.535065 132.455064-135.646753 0-11.170909-1.063896-23.405714-1.595844-25.001559h-184.054026c1.595844-29.789091 28.725195-51.067013 60.11013-51.067013 29.257143 0 45.747532 13.830649 53.194805 34.576624z m188.269715 56.386493c0 26.597403 17.022338 46.279481 43.61974 46.279481 29.257143 0 43.087792-19.682078 43.087792-45.747533V297.558442h80.856104V463.526234c0 57.982338-29.789091 105.325714-96.282597 105.325714-27.129351 0-59.578182-12.234805-73.94078-37.236364v30.321039h-78.196363V297.558442h80.856104V449.163636z m315.405298 189.905455h-72.344935v-34.044675c0-24.46961-13.298701-43.087792-40.96-43.087793h-13.298701v-70.749091h46.811429v-113.304935c0-52.662857 33.512727-85.111688 88.303376-85.111688 25.533506 0 38.832208 5.851429 42.023896 7.447273v67.025454c-4.787532-1.063896-12.766753-2.65974-21.277922-2.65974-17.554286 0-29.257143 5.851429-29.257143 27.661299v98.942337h51.598961v70.749091h-51.598961v77.132468z"  horiz-adv-x="3550" />
      
      <glyph glyph-name="newagent-detail-twitter" unicode="&#59268;" d="M950.784 658.432v-548.352c0-45.568-15.872-83.968-48.128-116.224-32.256-32.256-71.168-48.128-116.224-48.128H237.568c-45.568 0-83.968 15.872-116.224 48.128-32.256 32.256-48.128 71.168-48.128 116.224V658.432c0 45.568 15.872 83.968 48.128 116.224s71.168 48.128 116.224 48.128h548.352c45.568 0 83.968-15.872 116.224-48.128s48.64-71.168 48.64-116.224zM558.08 419.84l169.984 197.12h-40.448L540.16 445.44l-117.76 171.52H286.72l178.176-259.072L286.72 151.04h40.448l155.648 180.736 124.416-180.736H742.4L558.08 419.84z m-55.296-64l-17.92 25.6-143.36 205.312h61.952l115.712-165.888 17.92-25.6 150.528-215.552h-61.952l-122.88 176.128z"  horiz-adv-x="1024" />
      
      <glyph glyph-name="newtwitter-round" unicode="&#59264;" d="M512-128C229.376-128 0 101.376 0 384S229.376 896 512 896s512-229.376 512-512-229.376-512-512-512z m45.056 549.376l177.152 205.824h-41.984l-153.6-178.688-122.88 178.688H273.92l185.856-270.336-185.856-216.064h41.984l162.304 188.928 129.536-188.928h141.824l-192.512 280.576z m-57.344-67.072l-18.944 27.136-149.504 214.016h64.512l120.832-173.056 18.944-27.136 157.184-224.768h-64.512l-128.512 183.808z"  horiz-adv-x="1024" />
      
      <glyph glyph-name="newagent-twitter" unicode="&#59265;" d="M589.824 445.952L884.736 788.48h-69.632l-256-297.472-204.8 297.472h-235.52l309.248-450.048L118.784-20.48h69.632l270.336 314.368 216.064-314.368h236.032l-321.024 466.432z m-95.744-111.104l-31.232 44.544-249.344 356.864h107.52L522.24 448.512l31.232-44.544 261.632-373.76h-107.52l-213.504 304.64z"  horiz-adv-x="1024" />
      
      <glyph glyph-name="newnewtwitter" unicode="&#59266;" d="M606.208 459.264l359.424 417.792H880.64l-312.32-362.496L319.488 877.056H32.256l376.832-548.352-376.832-437.76h84.992l329.216 382.976 263.168-382.976h287.232l-390.656 568.32z m-116.224-135.168L451.584 378.88 147.968 813.056h130.56l245.248-350.72 38.4-54.784 318.464-455.68h-130.56l-260.096 372.224z"  horiz-adv-x="1024" />
      
      <glyph glyph-name="newtwitter2" unicode="&#59267;" d="M571.904 431.104L795.648 691.2H742.4l-194.56-225.792L393.216 691.2h-179.2l234.496-341.504L214.016 76.8h53.248l205.312 238.592 163.84-238.592h179.2l-243.712 354.304z m-72.704-84.48l-23.552 33.792-189.44 270.848h81.408l152.576-218.624 23.552-33.792 198.656-283.648h-81.408l-161.792 231.424z"  horiz-adv-x="1024" />
      
      <glyph glyph-name="a-newagent-detail-twitter1" unicode="&#59261;" d="M950.784 658.432v-548.352c0-45.568-15.872-83.968-48.128-116.224-32.256-32.256-71.168-48.128-116.224-48.128H237.568c-45.568 0-83.968 15.872-116.224 48.128-32.256 32.256-48.128 71.168-48.128 116.224V658.432c0 45.568 15.872 83.968 48.128 116.224s71.168 48.128 116.224 48.128h548.352c45.568 0 83.968-15.872 116.224-48.128s48.64-71.168 48.64-116.224zM558.08 419.84l169.984 197.12h-40.448L540.16 445.44l-117.76 171.52H286.72l178.176-259.072L286.72 151.03999999999996h40.448l155.648 180.736 124.416-180.736H742.4L558.08 419.84z m-55.296-64l-17.92 25.6-143.36 205.312h61.952l115.712-165.888 17.92-25.6 150.528-215.552h-61.952l-122.88 176.128z"  horiz-adv-x="1024" />
      
      <glyph glyph-name="newtwitter-square" unicode="&#59262;" d="M1017.856 705.536v-632.32c0-52.224-18.432-96.768-55.808-134.144-36.864-36.864-81.92-55.808-134.144-55.808H196.096c-52.224 0-96.768 18.432-134.144 55.808s-55.808 81.92-55.808 134.144V705.536C6.144 757.76 25.088 802.304 61.952 839.68S143.872 895.488 196.096 895.488h632.32C880.64 895.488 925.184 877.056 962.56 839.68c36.352-37.376 55.296-81.92 55.296-134.144z m-445.952-271.36l212.992 247.296h-50.688l-184.832-215.04-147.456 215.04H231.424l223.232-325.12L231.424 97.28H281.6l195.072 226.816 156.16-226.816h170.496l-231.424 336.896z m-69.12-80.384l-22.528 32.256-180.224 257.536h77.312l145.408-207.872 22.528-32.256 188.928-269.824h-77.312l-154.112 220.16z"  horiz-adv-x="1024" />
      
      <glyph glyph-name="CLOSELY" unicode="&#59260;" d="M210.103179 169.650535c53.759418-53.631419 150.697034-151.294361 290.81285-293.116824 5.887936-5.973269 15.573165-6.058601 21.589099-0.170665l0.170665 0.213331c139.39049 141.011806 236.28544 238.717414 290.81285 293.116825a424.656733 424.656733 0 0 1 0 601.678815C646.877114 937.556883 376.714708 937.556883 210.145846 771.414683a424.656733 424.656733 0 0 1 0-601.721481z m521.125022 513.27444a306.471347 306.471347 0 0 1-217.042982 89.684362c-169.555496 0-307.026007-137.086515-307.026008-306.130017 0-169.086168 137.470511-306.172683 307.026008-306.172683a306.471347 306.471347 0 0 1 217.085648 89.684361l-56.191391 56.020727a227.154872 227.154872 0 0 0-160.894257-66.473947c-125.694638 0-227.581535 101.588233-227.581535 226.941542 0 125.310642 101.886896 226.941541 227.581535 226.941541 62.804653 0 119.72137-25.429058 160.85159-66.473946l56.191392 56.020726z m27.30637-307.879331a91.519009 91.519009 0 0 1 91.647008 91.39101 91.519009 91.519009 0 0 1-91.647008 91.39101 91.519009 91.519009 0 0 1-91.647007-91.39101c0-50.47412 41.044889-91.39101 91.647007-91.39101z"  horiz-adv-x="1024" />
      
      <glyph glyph-name="house_02" unicode="&#59259;" d="M1010.88 416L541.12 868.16a41.92 41.92 0 0 1-58.24 0L13.12 416a43.2 43.2 0 0 1 0-60.48 42.24 42.24 0 0 1 32-13.12h40.32v-384A85.12 85.12 0 0 1 170.56-128H384v298.56a42.88 42.88 0 0 0 42.56 42.88h170.88a42.88 42.88 0 0 0 42.56-42.88V-128h213.44a85.12 85.12 0 0 1 85.12 85.44v384h43.52A42.24 42.24 0 0 1 1024 384a43.52 43.52 0 0 1-13.12 32z"  horiz-adv-x="1024" />
      
      <glyph glyph-name="community" unicode="&#59258;" d="M955.52 640c-32 55.36-102.08 82.56-192 82.56-19.84-0.192-39.744-1.472-59.52-3.84C658.56 827.2 589.44 896 512 896S365.44 827.2 320 718.72a533.504 533.504 0 0 1-58.24 3.84c-89.92 0-160-27.2-192-82.56-38.4-66.88-13.44-160 56.96-256-70.4-96-96-189.12-56.96-256 32-55.36 102.08-82.56 192-82.56 19.456 0.192 38.912 1.472 58.24 3.84C365.44-59.2 434.56-128 512-128s146.56 68.8 192 177.28c19.328-2.368 38.784-3.648 58.24-3.84 89.92 0 160 27.2 192 82.56 38.4 66.88 13.44 160-56.96 256 71.68 96 96.64 189.12 58.24 256zM260.48 109.44c-68.48 0-117.76 18.56-136.32 50.56-22.4 38.72-5.76 102.72 43.2 173.12 30.528-32.96 63.552-63.424 98.88-91.2 6.208-44.352 16-88.128 29.44-130.88a438.4 438.4 0 0 0-35.2-1.6z m-3.2 224c-17.92 16.96-33.28 33.92-49.28 50.56 16 16.64 31.36 32 48 50.24v-100.48l1.28-0.32z m8.96 192a858.24 858.24 0 0 1-98.88-91.2C118.4 505.28 101.76 569.28 124.16 608 142.72 640 192 658.56 260.48 658.56h35.2a818.56 818.56 0 0 1-29.44-132.48v-0.64z m416 53.44c-14.08 8.96-28.16 17.6-42.88 26.24-14.72 8.64-29.76 16.64-44.8 24 22.592 7.04 45.568 12.992 68.8 17.6 8.64-20.48 14.08-43.2 19.52-67.2l-0.64-0.64zM512 832c44.48 0 91.84-46.4 128-124.16a814.72 814.72 0 0 1-128-40.32 814.72 814.72 0 0 1-128 40.32C420.16 785.6 467.52 832 512 832zM360 647.36c23.232-4.608 46.208-10.496 68.8-17.6-15.04-7.36-29.76-15.36-44.8-24-15.04-8.64-28.8-17.28-42.88-26.24 5.44 24 10.88 46.72 18.88 67.84z m-18.88-458.88c14.08-8.96 28.16-17.6 42.88-26.24 14.72-8.64 29.76-16.64 44.8-24-22.592-7.04-45.568-12.992-68.8-17.6a510.72 510.72 0 0 0-18.88 67.84zM512-64c-44.48 0-91.84 46.4-128 124.16a814.72 814.72 0 0 1 128 40.32 814.72 814.72 0 0 1 128-40.32C603.84-17.6 556.48-64 512-64z m152 184.64A659.712 659.712 0 0 0 595.2 138.24c15.04 7.36 29.76 15.36 44.8 24 15.04 8.64 28.8 17.28 42.88 26.24a510.72 510.72 0 0 0-18.88-67.84z m33.6 156.16c-28.8-21.376-58.688-41.152-89.6-59.2-31.104-17.792-63.168-33.92-96-48.32a997.76 997.76 0 0 0-96 48.32c-30.976 18.048-60.8 37.76-89.6 59.2a901.12 901.12 0 0 0 0 214.4c28.8 21.376 58.624 41.152 89.6 59.2 31.104 17.792 63.168 33.92 96 48.32 32.832-14.4 64.896-30.528 96-48.32 30.912-18.048 60.8-37.76 89.6-59.2 4.288-35.584 6.4-71.36 6.4-107.2s-2.112-71.68-6.4-107.2z m65.92 381.76c68.48 0 117.76-18.56 136.32-50.56 22.4-38.72 5.76-102.72-43.2-173.12A858.048 858.048 0 0 1 757.76 526.08a817.92 817.92 0 0 1-29.44 130.88 438.4 438.4 0 0 0 35.2 1.6z m3.2-224c17.92-18.56 33.28-33.92 49.28-50.56-14.72-16.64-32-33.6-49.28-50.24V384c0 18.24 1.28 32 1.28 50.24l-1.28 0.32z m133.12-274.56c-18.56-32-68.16-50.56-136.32-50.56h-35.2c13.376 42.752 23.232 86.528 29.44 130.88 35.264 27.776 68.352 58.24 98.88 91.2 48.96-68.8 65.6-132.8 43.2-171.52zM512 448a64 64 0 1 1 0-128 64 64 0 0 1 0 128z"  horiz-adv-x="1024" />
      
      <glyph glyph-name="arrow_01_right" unicode="&#59257;" d="M265.30894-127.99744a31.999013 31.999013 0 0 0-22.441975 54.69698L700.154199 383.986774 242.866965 841.188677a31.999013 31.999013 0 1 0 45.139941 45.481264L790.690074 383.986774l-502.683168-502.683168a31.999013 31.999013 0 0 0-22.697966-9.301046z"  horiz-adv-x="1024" />
      
      <glyph glyph-name="markettrends_02" unicode="&#59256;" d="M928 0h-832a32 32 0 0 1 0-64h832a32 32 0 0 1 0 64zM960 832H64a64 64 0 0 1-64-64v-640a64 64 0 0 1 64-64h896a64 64 0 0 1 64 64V768a64 64 0 0 1-64 64z m-108.8-406.08l-105.6-96a32 32 0 0 0-46.72 4.16L540.8 536.32l-64-256a32 32 0 0 0-25.28-23.36 17.6 17.6 0 0 0-5.76 0 32 32 0 0 0-25.92 13.44L307.84 424.96 216.96 332.8a32 32 0 1 0-45.12 45.44L288 497.28a32 32 0 0 0 48.96-3.84l92.8-129.92 64 251.52a32 32 0 0 0 56.32 11.84l176.64-225.92 80.32 72.32a32 32 0 0 0 42.88-47.36h1.28z"  horiz-adv-x="1024" />
      
      <glyph glyph-name="google2" unicode="&#59916;" d="M214.101333 384c0 32.512 5.546667 63.701333 15.36 92.928L57.173333 605.781333A491.861333 491.861333 0 0 1 4.693333 384c0-79.701333 18.858667-154.88 52.394667-221.610667l172.202667 129.066667A290.56 290.56 0 0 0 214.101333 384M516.693333 679.808c72.106667 0 137.258667-25.002667 188.458667-65.962667L854.101333 759.466667C763.349333 836.821333 646.997333 884.608 516.693333 884.608c-202.325333 0-376.234667-113.28-459.52-278.826667l172.373334-128.853333c39.68 118.016 152.832 202.88 287.146666 202.88M516.693333 88.192c-134.357333 0-247.509333 84.864-287.232 202.88l-172.288-128.853333c83.242667-165.546667 257.152-278.826667 459.52-278.826667 124.842667 0 244.053333 43.392 333.568 124.757333l-163.584 123.818667c-46.122667-28.458667-104.234667-43.776-170.026666-43.776M1005.397333 384c0 29.568-4.693333 61.44-11.648 91.008H516.650667V281.6h274.602666c-13.696-65.962667-51.072-116.650667-104.533333-149.632l163.541333-123.818667c93.994667 85.418667 155.136 212.650667 155.136 375.850667"  horiz-adv-x="1024" />
      
      <glyph glyph-name="google1" unicode="&#59514;" d="M881 453.6H519.7v-148.5h206.4c-8.9-48-35.9-88.6-76.6-115.8-34.4-23-78.3-36.6-129.9-36.6-99.9 0-184.4 67.5-214.6 158.2-7.6 23-12 47.6-12 72.9s4.4 49.9 12 72.9c30.3 90.6 114.8 158.1 214.7 158.1 56.3 0 106.8-19.4 146.6-57.4l110 110.1c-66.5 62-153.2 100-256.6 100-149.9 0-279.6-86-342.7-211.4-26-51.8-40.8-110.4-40.8-172.4S151 263.2 177 211.4C240.1 86 369.8 0 519.7 0c103.6 0 190.4 34.4 253.8 93 72.5 66.8 114.4 165.2 114.4 282.1 0 27.2-2.4 53.3-6.9 78.5z"  horiz-adv-x="1024" />
      
      <glyph glyph-name="a-ToursShowing" unicode="&#59255;" d="M998.234073-68.500304l-80.292601 187.392052a85.090963 85.090963 0 0 1-78.373255 51.502425H691.138869L512-0.107643l-179.138869 170.501816H184.431783a85.090963 85.090963 0 0 1-78.373255-51.502425L25.765927-68.564282A42.865372 42.865372 0 0 1 64.152828-128h895.694344a41.969678 41.969678 0 0 1 39.026682 27.062765 42.545481 42.545481 0 0 1-0.639781 32.500909zM512 85.30321a3505.363795 3505.363795 0 0 1 255.91267 244.012731A341.195567 341.195567 0 0 1 324.1601 839.733761a341.259545 341.259545 0 0 1-66.473316-513.616728c42.225591-46.064281 126.356881-126.676772 254.313216-240.813823z m0 596.788346A127.956335 127.956335 0 1 0 512 426.05093a127.956335 127.956335 0 0 0 0 255.91267z"  horiz-adv-x="1024" />
      
      <glyph glyph-name="more1" unicode="&#59254;" d="M96 480a96 96 0 1 1 0-192 96 96 0 0 1 0 192z m416 0a96 96 0 1 1 0-192 96 96 0 0 1 0 192z m416 0a96 96 0 1 1 0-192 96 96 0 0 1 0 192z"  horiz-adv-x="1024" />
      
      <glyph glyph-name="view1" unicode="&#59252;" d="M1365.344 384a56.224 56.224 0 0 0-2.656-6.656l-2.656-5.344v-13.344l10.016 23.328c6.656 15.552 2.88 6.432-11.328-27.328-15.104-33.792-32.448-66.208-52-97.344s-40.896-60-64-86.656c-24-25.792-49.344-49.792-76-72s-55.104-42.656-85.344-61.344c-29.344-17.792-59.776-34.016-91.328-48.672s-64.224-26.88-98.016-36.672c-33.792-10.656-68.448-18.656-104-24s-72-8-109.344-8c-37.344 0-73.792 2.656-109.344 8s-70.208 13.344-104 24c-33.792 9.792-66.432 22.016-98.016 36.672s-62.016 30.88-91.328 48.672a969.152 969.152 0 0 0-85.344 64c-26.656 24-51.552 49.568-74.656 76.672A748.128 748.128 0 0 0 0 363.968v20c0.896 0.896 1.568 2.016 2.016 3.328s1.12 2.432 2.016 3.328v12l1.344 8c15.104 34.656 32.672 67.552 52.672 98.656s42.016 60.896 66.016 89.344c23.104 25.792 47.776 50.208 74.016 73.344s54.432 44.448 84.672 64c57.792 37.344 120.448 66.208 188 86.656s138.656 30.656 213.344 30.656c37.344 0 74.016-2.656 110.016-8s70.88-13.344 104.672-24c33.792-9.792 66.208-21.792 97.344-36s61.344-30.656 90.656-49.344a884.768 884.768 0 0 0 156.032-137.344c24.896-29.344 47.552-60.448 68-93.344s38.656-68 54.656-105.344v-16z m-89.344-5.344l-1.344 9.344c-12.448 27.552-26.88 54.208-43.328 80s-34.432 50.208-54.016 73.344c-19.552 23.104-41.12 44.896-64.672 65.344s-48.224 39.104-74.016 56c-24.896 16.896-51.104 31.776-78.656 44.672s-56 23.776-85.344 32.672c-30.208 8.896-61.12 15.776-92.672 20.672s-63.776 7.328-96.672 7.328c-32.896 0-65.12-2.432-96.672-7.328s-62.016-11.776-91.328-20.672c-30.208-8.896-59.552-19.776-88-32.672s-55.552-27.776-81.344-44.672a699.424 699.424 0 0 1-140.032-121.344c-19.552-22.208-37.568-46.016-54.016-71.328s-31.328-52.672-44.672-82.016l1.344-14.656c13.344-26.656 28-52.448 44-77.344s33.792-48.448 53.344-70.656c19.552-23.104 40.896-44.896 64-65.344s47.104-39.104 72-56c26.656-16 54.016-30.432 82.016-43.328s57.12-24.224 87.328-34.016c30.208-8.896 61.12-15.552 92.672-20a691.776 691.776 0 0 1 192 0 648.704 648.704 0 0 1 92.672 20c30.208 9.792 59.328 21.12 87.328 34.016s55.328 27.328 81.984 43.328c25.792 16.896 50.208 35.552 73.344 56s44.896 42.208 65.344 65.344c19.552 22.208 37.568 46.016 54.016 71.328s30.88 52.672 43.328 82.016zM682.656 640c71.104 0 131.552-24.896 181.344-74.656s74.656-110.208 74.656-181.344c0-71.104-24.896-131.552-74.656-181.344S753.792 128 682.656 128c-71.104 0-131.552 24.896-181.344 74.656S426.656 312.864 426.656 384c0 71.104 24.896 131.552 74.656 181.344S611.52 640 682.656 640z m0-426.656c47.104 0 87.328 16.672 120.672 50.016s50.016 73.568 50.016 120.672-16.672 87.328-50.016 120.672-73.568 50.016-120.672 50.016-87.328-16.672-120.672-50.016-50.016-73.568-50.016-120.672 16.672-87.328 50.016-120.672 73.568-50.016 120.672-50.016z"  horiz-adv-x="1376" />
      
      <glyph glyph-name="delete1" unicode="&#59253;" d="M874.4 716.8c8.09 0 15.09-2.956 21-8.866s8.866-12.912 8.866-21-2.956-15.088-8.866-21-12.91-8.866-21-8.866h-61.6L786.666-61.6c-0.622-16.178-6.688-29.866-18.2-41.068s-25.356-16.8-41.534-16.8h-481.6c-16.178 0-30.022 5.6-41.534 16.8s-17.578 24.89-18.2 41.068L159.466 657.068h-61.6c-8.088 0-15.09 2.956-21 8.866s-8.868 12.912-8.868 21 2.956 15.088 8.868 21 12.912 8.866 21 8.866h238.932V776.534c0 16.8 5.754 30.956 17.266 42.466s25.666 17.266 42.466 17.266h179.2c16.8 0 30.956-5.754 42.466-17.266s17.268-25.668 17.268-42.466V716.8h238.932zM396.534 776.534v-59.732h179.2V776.536h-179.2z m328.534-836.266l29.866 716.8h-537.6l29.866-716.8h477.868zM577.6 59.732c-8.088 0-15.088 2.956-21 8.866s-8.868 12.91-8.868 21v3.732l26.132 414.4c0 8.712 2.956 15.868 8.866 21.466s12.91 8.4 21 8.4c8.712 0 15.866-2.8 21.466-8.4s8.4-12.754 8.4-21.466v-3.734l-26.134-414.4c0-8.09-2.956-15.09-8.866-21s-12.91-8.866-21-8.866z m-182.934 0c-8.088 0-15.088 2.956-21 8.866s-8.868 12.91-8.868 21l-26.132 413.466v2.334 2.334c0 8.088 2.8 15.088 8.4 21s12.754 8.868 21.466 8.868c8.088 0 15.088-2.956 21-8.868s8.868-12.912 8.868-21l26.132-413.466v-4.664c0-8.09-2.8-15.09-8.4-21s-12.754-8.866-21.466-8.866z"  horiz-adv-x="1024" />
      
      <glyph glyph-name="edit_01" unicode="&#59743;" d="M1011.497892 806.021961a182.572096 182.572096 0 0 1-37.327368 48.854481A156.182298 156.182298 0 0 1 928.977414 884.989668 123.912587 123.912587 0 0 1 879.067962 895.942752a115.922731 115.922731 0 0 1-67.06825-18.834341 283.399428 283.399428 0 0 1-35.388082-26.560454q-5.771314-4.855971-74.561649-74.282392t-150.069671-149.743871l-147.509813-146.547928-66.556279-66.556279a23.72134 23.72134 0 0 1-4.421571-5.94197 44.339824 44.339824 0 0 1-2.528828-5.895428q-5.212799-16.321027-16.103827-54.393081t-23.038712-77.431792l-21.440741-70.078021-9.603342-32.005968a26.948312 26.948312 0 0 1 0.046543-14.583427 27.025883 27.025883 0 0 1 25.846797-20.27717h8.346685l32.005968 10.565228 71.039907 23.038712 76.795707 25.598569q37.125682 11.837399 48.963081 15.033341c2.078914 0.682629 3.894085 1.660028 5.476542 2.901171l5.398971 3.816514 216.625949 213.755807 144.624157 143.351985q68.15425 66.882079 79.029763 79.029763a192.408152 192.408152 0 0 1 36.61371 50.716195 123.028273 123.028273 0 0 1 12.333856 53.245023 125.014101 125.014101 0 0 1-12.814798 52.919223z m-57.930337-80.627734a128.597901 128.597901 0 0 0-23.364512-31.990454q-6.407399-5.445514-34.240025-34.565825l-82.877306-80.317449-127.992844-125.107187-170.548525-168.624754-19.84277-18.880884-67.518164-21.440741-85.437163-27.52234q13.125084 41.919596 26.560454 87.360934t20.478855 70.403822l91.192963 88.307305 143.026185 142.390099L823.635425 806.037476s7.353771 6.081599 18.555084 14.071455a63.422394 63.422394 0 0 0 36.784368 11.837399c9.355113-0.046543 18.151712-2.296114 25.939883-6.236742a105.683303 105.683303 0 0 0 25.303797-17.810398 111.144331 111.144331 0 0 0 22.061312-27.568883c4.7784-8.300142 7.865742-17.407027 8.905199-27.134483a59.807565 59.807565 0 0 0-7.803685-28.111883z m-153.575899-789.397805H64.025046V735.959454h479.980922l63.996422 63.996422H64.025046A63.996422 63.996422 0 0 1 0.028624 735.959454v-799.963032A63.996422 63.996422 0 0 1 64.025046-128h735.96661a63.996422 63.996422 0 0 1 63.996422 63.996422v511.971376L799.991656 383.971376z"  horiz-adv-x="1024" />
      
      <glyph glyph-name="a-SeeValueTrend" unicode="&#59217;" d="M960 832H64a64 64 0 0 1-64-64v-640a64 64 0 0 1 64-64h896a64 64 0 0 1 64 64V768a64 64 0 0 1-64 64z m0-704H64V768h896v-640z m-32-128h-832a32 32 0 0 1 0-64h832a32 32 0 0 1 0 64zM216.96 332.8l90.88 92.16 110.72-154.56a32 32 0 0 1 25.92-13.44c1.92-0.32 3.84-0.32 5.76 0a32 32 0 0 1 25.28 23.36l64 256 158.08-201.92a32 32 0 0 1 46.72-4.16l105.6 96a32 32 0 0 1-42.88 47.36l-80.32-72.32-175.36 225.6a32 32 0 0 1-56.32-11.84l-64-251.52-92.8 129.92a32 32 0 0 1-23.68 13.12 32 32 0 0 1-25.28-9.28L171.52 377.92a32 32 0 1 1 45.44-45.12z"  horiz-adv-x="1024" />
      
      <glyph glyph-name="a-Viewsalesactivity" unicode="&#59220;" d="M896 832h-128v-64h128v-832H128V768h128V832H128a64 64 0 0 1-64-64v-832a64 64 0 0 1 64-64h768a64 64 0 0 1 64 64V768a64 64 0 0 1-64 64zM384 192h384v64H384v-64z m384 320H384v-64h384V512z m-64 320a64 64 0 0 1-64 64H384a64 64 0 0 1-64-64v-128h384V832z m-64-64H384V832h256v-64zM320 512H256v-64h64V512z m-64-320h64v64H256v-64z"  horiz-adv-x="1024" />
      
      <glyph glyph-name="a-ChecklistingTraffic" unicode="&#59224;" d="M896 768H128a128 128 0 0 1-128-128v-512a128 128 0 0 1 128-128h768a128 128 0 0 1 128 128V640a128 128 0 0 1-128 128z m64-640a64 64 0 0 0-64-64H128a64 64 0 0 0-64 64V640a64 64 0 0 0 64 64h768a64 64 0 0 0 64-64v-512z m-96-192h-704a32 32 0 0 1 0-64h704a32 32 0 0 1 0 64zM160 832h704a32 32 0 0 1 0 64h-704a32 32 0 1 1 0-64zM832 416h-160a32 32 0 0 1-24.96-12.16L553.28 288l-107.52 269.12A32 32 0 0 1 416 576a32 32 0 0 1-29.76-17.6L300.16 384H192a32 32 0 1 1 0-64h128a32 32 0 0 1 28.48 17.6l64 128L513.92 211.84a32 32 0 0 1 24.96-19.84h5.12a32 32 0 0 1 24.96 12.16l118.4 147.84H832a32 32 0 0 1 0 64z"  horiz-adv-x="1024" />
      
      <glyph glyph-name="a-FinancialOptions" unicode="&#59230;" d="M928 672L704 896H160a64 64 0 0 1-64-64v-896a64 64 0 0 1 64-64h704a64 64 0 0 1 64 64V672zM704 805.44L837.44 672H704V805.44zM864-64h-704V832H640v-224h224V-64z m-320 288h-256v-64h256v64z m-256-192h448v64h-448v-64zM320 376.96c14.08-9.92 29.952-16.96 46.72-20.8V320h64v34.56c18.176 2.496 35.456 9.536 50.24 20.48a75.52 75.52 0 0 1 29.76 64 80 80 0 0 1-25.6 61.76 192 192 0 0 1-74.56 37.76 175.04 175.04 0 0 0-45.12 21.44 32 32 0 0 0-13.12 25.92 37.12 37.12 0 0 0 12.16 28.48 48 48 0 0 0 33.92 11.2 53.12 53.12 0 0 0 37.76-12.48 46.72 46.72 0 0 0 14.72-37.12h57.6A83.52 83.52 0 0 1 480 646.08a105.92 105.92 0 0 1-48 22.4V704h-64v-35.84c-16-3.328-31.04-10.304-43.84-20.48a75.84 75.84 0 0 1-30.08-64A74.56 74.56 0 0 1 320 525.12c23.552-17.28 49.92-30.208 78.08-38.08 15.168-3.968 29.44-10.88 41.92-20.48a37.12 37.12 0 0 0 11.84-28.8 34.88 34.88 0 0 0-12.48-28.16 55.04 55.04 0 0 0-36.48-10.24 64 64 0 0 0-41.92 12.8 50.56 50.56 0 0 0-15.36 40.64h-57.6A84.48 84.48 0 0 1 320 376.96z"  horiz-adv-x="1024" />
      
      <glyph glyph-name="equity" unicode="&#59235;" d="M960 832H64a64 64 0 0 1-64-64v-512a64 64 0 0 1 64-64h205.44a352 352 0 0 0-11.84 64H64V768h896v-512c-1.92-21.632-5.952-43.072-11.84-64H960a64 64 0 0 1 64 64V768a64 64 0 0 1-64 64z m-150.4-725.44a280.32 280.32 0 1 1-62.08-50.24l111.04-137.6a39.808 39.808 0 0 1 26.88-14.4 38.016 38.016 0 0 1 29.12 8.64 39.68 39.68 0 0 1 6.08 55.04l-111.04 138.56zM803.52 275.2a199.68 199.68 0 1 0-397.12 42.496 199.68 199.68 0 0 0 397.12-42.496zM256 608v64H128v-64h32v-192H128v-64h128v64h-32v192H256z"  horiz-adv-x="1024" />
      
      <glyph glyph-name="a-RequestaCMA" unicode="&#59239;" d="M768 896H160a64 64 0 0 1-64-64v-896a64 64 0 0 1 64-64h704a64 64 0 0 1 64 64V704L768 896z m0-99.84L844.8 704H768V796.16zM864-64h-704V832H704v-192h160v-704zM320 224H256a32 32 0 0 1 0-64h64a32 32 0 0 1 0 64z m320 0H448a32 32 0 0 1 0-64h192a32 32 0 0 1 0 64z m-320-128H256a32 32 0 0 1 0-64h64a32 32 0 0 1 0 64z m96-32a32 32 0 0 1 32-32h320a32 32 0 0 1 0 64H448a32 32 0 0 1-32-32z m10.56 288V448h42.88v-96a32 32 0 0 1 32-32H608a32 32 0 0 1 32 32V512a32 32 0 0 1 20.48 56.64l-192 160a32 32 0 0 1-40.96 0l-192-160A32 32 0 0 1 256 512v-160a32 32 0 0 1 32-32h106.56a32 32 0 0 1 32 32z m-64 128V384H320V544a34.24 34.24 0 0 1-1.92 9.92L448 662.4l129.92-108.48A34.24 34.24 0 0 1 576 544V384h-42.56V480a32 32 0 0 1-32 32h-106.88a32 32 0 0 1-32-32z"  horiz-adv-x="1024" />
      
      <glyph glyph-name="a-Sellmyhome" unicode="&#59249;" d="M1010.88 416L541.12 868.16a42.56 42.56 0 0 1-58.24 0L13.12 416a43.2 43.2 0 0 1 0-60.48 42.24 42.24 0 0 1 32-13.12h40.32v-384A85.12 85.12 0 0 1 170.56-128h682.88a85.12 85.12 0 0 1 85.12 85.44v384h43.52A42.24 42.24 0 0 1 1024 384a43.52 43.52 0 0 1-13.12 32z m-136.32-9.6v-448a21.44 21.44 0 0 0-21.12-21.44H170.56a21.44 21.44 0 0 0-21.12 21.44v448H96L512 807.04l416-401.6-53.44 0.96zM480 544v-66.88a137.6 137.6 0 0 1-64-26.24 90.56 90.56 0 0 1-37.76-74.88 87.36 87.36 0 0 1 32-72c30.72-21.568 65.28-37.12 101.76-46.08 18.944-4.608 36.8-12.992 52.48-24.64a42.56 42.56 0 0 0 15.04-34.56 40.32 40.32 0 0 0-15.68-33.6 72.32 72.32 0 0 0-45.76-12.48 81.6 81.6 0 0 0-52.8 15.68 58.88 58.88 0 0 0-19.52 48.64h-74.24v-1.6a98.24 98.24 0 0 1 41.92-89.28 160 160 0 0 1 66.88-26.56V32h64v64a141.824 141.824 0 0 1 71.36 26.24 88.704 88.704 0 0 1 37.44 75.52 92.864 92.864 0 0 1-32 73.92A243.84 243.84 0 0 1 526.72 320a207.36 207.36 0 0 0-56.64 25.92 36.8 36.8 0 0 0-16.32 32 44.48 44.48 0 0 0 15.04 34.24A64 64 0 0 0 512 423.04a67.84 67.84 0 0 0 47.36-15.04 54.4 54.4 0 0 0 16.64-42.88h72.64V366.72A96 96 0 0 1 612.48 448a137.28 137.28 0 0 1-68.48 29.76V544h-64z"  horiz-adv-x="1024" />
      
      <glyph glyph-name="a-Chatwithagent" unicode="&#59250;" d="M1024.00576 286.08a224 224 0 0 0-33.92-123.52 257.6 257.6 0 0 0-104.96-89.6v-1.92c0.32-24.064 3.968-48 10.88-71.04 5.12-20.096 12.48-39.552 22.08-57.92 0.64-1.344 1.152-2.752 1.6-4.16a16 16 0 0 0 0-3.84 20.736 20.736 0 0 0-21.12-21.12h-5.76a230.144 230.144 0 0 0-107.2 54.08 628.224 628.224 0 0 0-64 58.88l-20.8-1.6h-37.76a499.968 499.968 0 0 0-92.48 7.68 383.808 383.808 0 0 0-81.6 25.28 333.248 333.248 0 0 0-69.12 38.72 327.424 327.424 0 0 0-54.72 52.48c17.408 2.24 34.944 2.88 52.48 1.92h39.36a288 288 0 0 1 90.88-47.68c37.44-10.752 76.288-16 115.2-15.36h19.52c9.856-0.192 19.712 0.448 29.44 1.92l33.92 5.12 18.56-24.96c18.944-22.72 41.024-42.688 65.6-59.2a313.856 313.856 0 0 0-6.08 59.2l-1.92 43.84 32 15.04a206.464 206.464 0 0 1 81.92 67.52c16.64 27.072 25.024 58.432 24 90.24a172.48 172.48 0 0 1-14.4 72.96 162.88 162.88 0 0 1-55.68 59.84c3.52 10.88 6.72 22.08 9.6 34.24 2.88 11.52 4.992 23.104 6.4 34.88a233.28 233.28 0 0 0 90.56-87.04A235.52 235.52 0 0 0 1024.00576 286.08z m-693.12 0l35.2-3.2c13.888-1.856 27.904-2.816 41.92-2.88h18.88a449.92 449.92 0 0 1 135.68 19.52 336 336 0 0 1 109.44 55.04c29.568 22.592 54.016 51.2 71.68 83.84 16.768 32.64 25.152 68.928 24.32 105.6a184 184 0 0 1-27.52 96 262.4 262.4 0 0 1-74.56 78.4 380.48 380.48 0 0 1-111.04 53.12 463.04 463.04 0 0 1-136.96 19.52 466.88 466.88 0 0 1-137.28-19.52 402.56 402.56 0 0 1-113.28-52.16A256 256 0 0 1 91.52576 640c-17.856-28.8-27.392-62.08-27.52-96a280.96 280.96 0 0 1 32-125.12 212.48 212.48 0 0 1 96-96l34.88-17.92-2.88-40-1.92-17.6a326.144 326.144 0 0 0-19.2-64c18.624 11.328 36.416 24.064 53.12 38.08 11.712 9.6 22.4 20.288 32 32l42.88 32.64z m94.08-69.12H381.44576a192.64 192.64 0 0 0-24.32 2.56 312.192 312.192 0 0 0-32-27.2c-15.68-12.48-33.92-25.92-55.36-40-21.632-14.08-44.16-26.88-67.52-38.08a244.224 244.224 0 0 0-66.56-21.76h-5.76a21.12 21.12 0 0 0-16.32 6.72 24.32 24.32 0 0 0-6.72 16.96 20.16 20.16 0 0 0 0 5.12 35.648 35.648 0 0 0 1.6 4.16c8 13.12 18.88 33.6 32 61.44a166.4 166.4 0 0 1 21.44 76.48v1.92A288 288 0 0 0 40.00576 384 337.6 337.6 0 0 0 0.00576 544a241.92 241.92 0 0 0 32 121.92c22.4 39.04 52.8 72.896 89.28 99.2A466.88 466.88 0 0 0 256.00576 832 527.68 527.68 0 0 0 418.88576 856.64a520.96 520.96 0 0 0 160-24.64A453.12 453.12 0 0 0 710.40576 765.76a320 320 0 0 0 89.6-99.84A241.92 241.92 0 0 0 832.00576 544a278.4 278.4 0 0 0-30.08-133.44 310.464 310.464 0 0 0-85.76-103.68c-39.04-29.696-83.2-52.16-130.24-66.24a534.656 534.656 0 0 0-160.96-23.68z"  horiz-adv-x="1024" />
      
      <glyph glyph-name="back_02_Bold" unicode="&#59215;" d="M917.76 563.84A366.08 366.08 0 0 1 656.96 672H288V832L0 608l288-224v160h368.96A240.32 240.32 0 0 0 896 303.36 240.32 240.32 0 0 0 656.96 64H256a64 64 0 0 1 0-128h400.96a368 368 0 0 1 260.8 627.84z"  horiz-adv-x="1025" />
      
      <glyph glyph-name="M" unicode="&#59212;" d="M1202.7904-128V876.9536H924.672L652.288 279.1424 379.904 876.9536H100.352V-128h227.9424V524.288l240.8448-551.936h166.2976l240.8448 551.936 1.4336-652.288h225.0752z"  horiz-adv-x="1228" />
      
      <glyph glyph-name="menu-help" unicode="&#59208;" d="M961.52 585.728l-0.96 3.808c12.704-29.216 22.368-59.84 29.056-91.904s10.016-64.928 10.016-98.56v-5.728c0-33.664-3.328-66.496-10.016-98.56s-16.352-62.688-29.056-91.904c-12.704-28.576-27.616-55.552-44.768-80.96s-36.672-49.056-58.56-70.944c-21.92-21.92-45.568-41.44-70.944-58.56s-52.384-32.064-80.96-44.768c-29.216-12.704-59.84-22.368-91.904-29.056s-64.928-10.016-98.56-10.016h-5.728c-33.664 0-66.496 3.328-98.56 10.016s-62.688 16.352-91.904 29.056c-28.576 12.704-55.552 27.616-80.96 44.768s-49.056 36.672-70.944 58.56c-21.92 21.92-41.44 45.568-58.56 70.944s-32.064 52.384-44.768 80.96c-12.704 29.216-22.368 59.84-29.056 91.904S24.368 359.712 24.368 393.344v5.728c0 33.664 3.328 66.496 10.016 98.56s16.352 62.688 29.056 91.904c12.704 28.576 27.616 55.552 44.768 80.96S144.88 719.552 166.768 741.44C188.688 763.36 212.336 782.88 237.712 800s52.384 32.064 80.96 44.768c29.216 12.704 59.84 22.368 91.904 29.056S475.504 883.84 509.136 883.84h5.728c33.664 0 66.496-3.328 98.56-10.016s62.688-16.352 91.904-29.056c28.576-12.704 55.552-27.616 80.96-44.768s49.056-36.672 70.944-58.56a500.416 500.416 0 0 0 59.52-71.904 527.36 527.36 0 0 0 44.768-83.808zM506.288 108.576c18.4 0 34.112 6.496 47.136 19.52s19.52 28.736 19.52 47.136c0 17.792-6.496 33.184-19.52 46.176s-28.736 19.52-47.136 19.52h-8.576c-18.4 0-33.984-6.496-46.656-19.52s-19.04-28.416-19.04-46.176c0-18.4 6.336-34.112 19.04-47.136s28.256-19.52 46.656-19.52h8.576z m108.544 293.344h0.96c24.128 12.064 43.648 29.536 58.56 52.384s22.368 48.256 22.368 76.192c0 45.728-16.672 82.528-50.016 110.464s-77.632 41.92-132.864 41.92c-59.04 0-104.928-15.072-137.632-45.248s-49.376-69.376-50.016-117.632h105.728c0 19.68 6.976 36.352 20.96 50.016s30.464 20.48 49.536 20.48h14.272c17.152 0 32.064-5.888 44.768-17.632s19.36-26.176 20-43.328c0-17.792-4.608-32.544-13.824-44.288s-26.496-25.248-51.904-40.48c-20.96-9.536-37.92-24.128-50.944-43.808a116.544 116.544 0 0 1-19.04-75.264c0.32-3.2 0.8-6.048 1.44-8.576v-21.92h101.92v20.96c0 18.4 4.608 33.504 13.824 45.248s26.496 25.248 51.904 40.48z"  horiz-adv-x="1024" />
      
      <glyph glyph-name="Check" unicode="&#59207;" d="M93.090867 383.999767a418.9089 418.9089 0 0 0 418.9089 418.908901c90.623959 0 174.359193-28.718532 242.874072-77.544692l54.039248 75.775965A509.905223 509.905223 0 0 1 511.999767 895.999535C229.236259 895.999535 0 666.763275 0 383.999767s229.236259-511.999767 511.999767-511.999767 511.999767 229.236259 511.999768 511.999767h-93.090867a418.9089 418.9089 0 1 0-837.817801 0z m661.410608 9.58836a3372.216649 3372.216649 0 0 1-207.452996-259.81661l-279.17951 270.428968 157.044292 123.810853 133.771576-126.370851a3771.716104 3771.716104 0 0 0 151.226113 122.461035l6.004361 4.607998a3016.842265 3016.842265 0 0 0 138.100301 100.724318l6.004361 4.189089c44.03198 30.394168 99.700318 68.887241 157.509746 105.006497l41.658163-55.249429c-32.628349-19.688718-84.526507-65.722152-128.93085-107.240679a2242.093526 2242.093526 0 0 1-80.430509-78.522146 3042.349163 3042.349163 0 0 1-95.325048-104.075589z"  horiz-adv-x="1070" />
      
      <glyph glyph-name="youtube-fill2" unicode="&#59206;" d="M0 896m213.333333 0l597.333334 0q213.333333 0 213.333333-213.333333l0-597.333334q0-213.333333-213.333333-213.333333l-597.333334 0q-213.333333 0-213.333333 213.333333l0 597.333334q0 213.333333 213.333333 213.333333ZM798.250667 532.0533330000001a74.837333 74.837333 0 0 1-53.034667 52.778667C698.581333 597.333333 511.872 597.333333 511.872 597.333333S325.12 597.333333 278.613333 584.832A74.752 74.752 0 0 1 225.834667 532.0533330000001C213.333333 485.546667 213.333333 388.352 213.333333 388.352s0-97.194667 12.501334-143.744a74.752 74.752 0 0 1 52.778666-52.778667c46.506667-12.288 233.258667-12.288 233.258667-12.288s186.794667 0 233.344 12.501334a74.88 74.88 0 0 1 52.992 52.565333C810.666667 291.157333 810.666667 388.352 810.666667 388.352s-0.256 97.152-12.416 143.701333zM452.138667 298.794667l155.178666 89.557333L452.138667 477.866667v-179.114667z"  horiz-adv-x="1024" />
      
      <glyph glyph-name="youtube-fill" unicode="&#59205;" d="M782.336 262.144c-10.752-39.972571-24.027429-59.392-60.928-66.56 0 0-95.707429-7.204571-195.584-7.204571-110.08 0-225.792 7.204571-225.792 7.204571-37.376 4.608-54.784 29.184-62.939429 66.56 0 0-10.752 64.512-10.752 128.512 0 61.952 10.752 123.867429 10.752 123.867429 10.752 38.4 20.955429 61.988571 62.902858 66.596571 0 0 103.972571 5.632 208.932571 5.632 106.020571 0 212.48-5.632 212.48-5.632 39.972571-4.608 49.188571-26.660571 60.928-66.596571 0 0 10.752-67.072 10.752-132.059429 0-60.928-10.752-120.32-10.752-120.32M512 896C228.864 896 0 667.099429 0 384c0-282.624 229.412571-512 512-512 282.624 0 512 229.376 512 512 0 283.099429-229.376 512-512 512M449.462857 285.769143l163.84 105.947428-163.84 106.057143z"  horiz-adv-x="1024" />
      
      <glyph glyph-name="youtube1" unicode="&#59204;" d="M426.6496 213.3504V512l256-149.8624-256-148.7872zM1013.76 568.832s-10.0352 71.0144-40.704 102.4c-38.912 41.0624-82.5856 41.216-102.6048 43.6224-143.3088 10.4448-358.2464 10.4448-358.2464 10.4448h-0.4096s-214.9888 0-358.2464-10.4448c-20.0704-2.4064-63.6416-2.56-102.656-43.6736-30.6688-31.3344-40.6528-102.4-40.6528-102.4S0 485.4784 0 402.0736v-78.336c0-83.456 10.24-166.912 10.24-166.912s9.984-71.0144 40.6528-102.3488c39.0144-41.0624 90.1632-39.7312 112.9472-44.032 81.92-7.9872 348.16-10.4448 348.16-10.4448s215.1936 0.3584 358.4 10.752c20.0704 2.4576 63.6928 2.56 102.656 43.6736 30.72 31.3344 40.704 102.4 40.704 102.4s10.24 83.456 10.24 166.912V401.92c0 83.456-10.24 166.912-10.24 166.912z"  horiz-adv-x="1024" />
      
      <glyph glyph-name="a-Vector10" unicode="&#59201;" d="M360.448-104.448c48.5888-14.7456 98.6112-23.552 151.552-23.552 282.4704 0 512 229.5296 512 512S794.4704 896 512 896 0 666.4704 0 384c0-217.7536 136.8064-404.5824 329.5744-478.208-4.4032 39.7824-8.8576 105.984 0 151.552l58.88 253.0816s-14.7456 29.44-14.7456 76.4928c0 70.656 44.1344 123.5968 94.1568 123.5968 44.1344 0 64.7168-32.3584 64.7168-73.5744 0-44.1344-29.3888-107.3664-44.1344-167.68-8.8064-50.0224 26.5216-94.208 77.9776-94.208 91.2384 0 161.8432 97.1264 161.8432 235.4176 0 122.112-88.2688 205.9776-214.784 205.9776-144.1792 0-229.5296-107.3664-229.5296-220.672 0-44.1344 14.6944-88.2688 38.2464-117.7088 4.4032-2.9184 4.4032-7.3728 2.9696-14.6944l-14.7456-55.9104c0-8.8576-5.888-11.776-14.6944-5.888-64.768 29.44-103.0144 122.112-103.0144 197.12 0 161.8432 114.7904 308.992 335.4624 308.992 176.5376 0 313.344-126.5152 313.344-294.2464 0-176.5888-108.8512-317.7984-264.8064-317.7984-50.0224 0-98.56 26.4704-114.7392 58.88l-35.328-122.1632c-11.776-44.1344-44.1344-102.9632-66.2016-138.2912v1.4848z"  horiz-adv-x="1024" />
      
      <glyph glyph-name="a-Vector9" unicode="&#59196;" d="M949.62688 120.100571c-43.739429-24.137143-72.850286-21.577143-95.524571-36.205714-19.236571-12.434286-7.826286-38.985143-21.869715-48.713143-17.115429-11.849143-67.949714 0.804571-133.339428-20.772571-54.052571-17.773714-88.502857-69.193143-185.782857-69.193143-97.426286 0-130.925714 51.126857-185.709715 69.193143-65.389714 21.650286-116.297143 8.923429-133.339428 20.772571-13.897143 9.581714-2.633143 36.352-21.942857 48.713143-22.454857 14.628571-51.712 11.995429-95.451429 36.205714-27.794286 15.433143-12.068571 24.868571-2.779429 29.403429 158.573714 76.726857 183.808 195.145143 184.905143 204.068571 1.389714 10.605714 2.925714 19.090286-8.923428 29.842286-11.264 10.386286-61.513143 41.618286-75.483429 51.2-23.113143 16.091429-33.28 32.182857-25.746286 51.931429 5.12 13.677714 17.993143 18.797714 31.451429 18.797714 4.242286 0 8.557714-0.585143 12.580571-1.462857 25.307429-5.485714 49.956571-18.139429 64.146286-21.504 1.974857-0.438857 3.657143-0.731429 5.339429-0.731429 7.460571 0 10.24 3.803429 9.728 12.580572-1.682286 27.648-5.558857 81.700571-1.243429 132.096 5.997714 69.339429 28.379429 103.862857 55.003429 134.217143C338.445166 775.168 398.20288 838.509714 513.037166 838.509714c114.980571 0 174.665143-63.341714 187.392-77.970285 26.550857-30.500571 49.005714-64.877714 55.003428-134.217143 4.315429-50.395429 0.512-104.448-1.316571-132.096-0.512-9.216 2.194286-12.580571 9.801143-12.580572 1.462857 0 3.291429 0.292571 5.266285 0.731429 14.189714 3.437714 38.765714 16.091429 64.146286 21.577143a63.926857 63.926857 0 0 0 12.580572 1.389714c13.458286 0 26.331429-5.12 31.451428-18.797714 7.533714-19.748571-2.633143-35.913143-25.746286-51.931429-13.897143-9.728-64.219429-40.813714-75.483428-51.2-11.702857-10.898286-10.166857-19.236571-8.923429-29.842286 1.170286-8.923429 26.477714-127.341714 184.905143-204.068571 9.581714-4.461714 25.307429-13.897143-2.486857-29.403429z m71.68 38.473143c-7.094857 19.309714-20.626286 29.622857-36.059429 38.253715a160.402286 160.402286 0 0 1-7.826285 4.169142l-14.043429 7.094858c-48.128 25.453714-85.577143 57.636571-111.616 95.817142a225.792 225.792 0 0 0-19.236571 33.938286c-2.194286 6.436571-2.121143 10.020571-0.585143 13.165714a22.601143 22.601143 0 0 0 6.144 6.509715l22.528 14.701714c10.313143 6.729143 18.578286 11.995429 23.698286 15.579429 19.748571 13.824 33.572571 28.452571 42.203428 44.836571a89.965714 89.965714 0 0 1 4.315429 74.386286c-13.165714 34.377143-45.568 55.808-85.065143 55.808a125.952 125.952 0 0 1-31.232-4.169143 714.24 714.24 0 0 1-2.194286 72.777143c-7.314286 86.089143-37.449143 131.072-68.900571 166.985143a275.017143 275.017143 0 0 1-70.070857 56.466285C625.823451 882.249143 571.697737 896 512.89088 896s-112.64-13.750857-160.402286-41.106286c-34.377143-19.602286-57.051429-41.618286-70.217143-56.466285-31.451429-35.913143-61.44-81.042286-68.900571-166.985143a715.849143 715.849143 0 0 1-2.194286-72.777143c-2.121143 0.585143-4.388571 0.950857-6.436571 1.462857a115.273143 115.273143 0 0 1-24.722286 2.706286c-39.497143 0-72.045714-21.430857-85.065143-55.808-9.362286-24.795429-7.826286-51.2 4.315429-74.386286 8.630857-16.384 22.381714-31.012571 42.130286-44.836571l23.698285-15.579429 21.723429-14.189714a23.405714 23.405714 0 0 0 6.948571-6.948572c1.682286-3.510857 1.682286-7.094857-0.731428-13.897143-4.169143-9.362286-10.24-20.772571-18.797715-33.28-25.453714-37.302857-61.952-68.973714-108.397714-94.134857-24.649143-13.092571-50.249143-21.869714-61.147428-51.2-8.192-22.308571-2.779429-47.542857 17.993142-68.754285 6.802286-7.460571 15.433143-13.897143 26.185143-19.821715 25.307429-14.043429 47.030857-20.918857 64-25.6a41.691429 41.691429 0 0 0 12.946286-5.705143c7.533714-6.582857 6.436571-16.603429 16.603429-31.232 6.070857-8.996571 13.092571-15.36 18.870857-19.163428 21.211429-14.628571 44.836571-15.506286 70.070857-16.457143 22.674286-0.804571 48.420571-1.828571 77.970286-11.556571 12.214857-4.022857 24.868571-11.849143 39.497142-20.918858 35.401143-21.650286 83.602286-51.346286 164.278858-51.346285 80.749714 0 129.389714 29.769143 164.717714 51.492571 14.628571 8.923429 27.136 16.749714 38.985143 20.626286 29.403429 9.728 55.149714 10.752 77.970285 11.556571 25.234286 0.950857 48.859429 1.828571 70.070858 16.457143 6.582857 4.608 14.848 12.068571 21.577142 23.478857 7.241143 12.288 7.094857 21.065143 13.897143 26.916572a41.618286 41.618286 0 0 0 12.068572 5.558857 283.062857 283.062857 0 0 1 64.877714 25.892571c11.483429 6.290286 20.48 13.165714 27.501714 21.211429l0.219429 0.219428c19.529143 20.918857 24.356571 45.568 16.310857 67.145143z"  horiz-adv-x="1025" />
      
      <glyph glyph-name="a-instagram_bold-chime" unicode="&#59194;" d="M729.856 890.624H294.4c-38.912 0-75.093333-7.424-108.885333-22.357333a273.066667 273.066667 0 0 1-89.429334-59.306667A273.066667 273.066667 0 0 1 36.693333 719.530667c-14.933333-33.706667-22.357333-69.973333-22.357333-108.885334v-435.541333c0-38.912 7.424-75.178667 22.357333-108.885333a273.066667 273.066667 0 0 1 59.306667-89.429334c25.258667-25.258667 55.125333-45.056 89.429333-59.306666 33.706667-14.933333 69.973333-22.357333 108.885334-22.357334h435.541333c38.912 0 75.178667 7.424 108.885333 22.357334a272.896 272.896 0 0 1 89.514667 59.306666 273.066667 273.066667 0 0 1 59.306667 89.429334c14.848 33.706667 22.357333 69.973333 22.357333 108.885333V610.645333c0 38.912-7.509333 75.178667-22.357333 108.885334a273.066667 273.066667 0 0 1-59.306667 89.429333A273.066667 273.066667 0 0 1 838.741333 868.266667 266.154667 266.154667 0 0 1 729.856 890.709333z m186.709333-715.52a180.053333 180.053333 0 0 0-54.442666-132.266667 180.053333 180.053333 0 0 0-132.266667-54.357333H294.4a180.053333 180.053333 0 0 0-132.266667 54.442667 180.053333 180.053333 0 0 0-54.357333 132.266666V610.56c0 51.882667 18.090667 95.914667 54.442667 132.266667a180.053333 180.053333 0 0 0 132.266666 54.442666h435.456a180.053333 180.053333 0 0 0 132.266667-54.442666c36.266667-36.352 54.442667-80.384 54.442667-132.266667v-435.541333zM512 649.557333c-35.584 0-69.034667-6.826667-100.096-20.48a250.538667 250.538667 0 0 1-136.106667-136.021333c-13.653333-31.146667-20.48-64.512-20.48-100.181333 0-35.669333 6.826667-69.034667 20.48-100.096a250.538667 250.538667 0 0 1 136.106667-136.106667c31.061333-13.653333 64.512-20.48 100.096-20.48 35.669333 0 69.12 6.826667 100.181333 20.48A250.538667 250.538667 0 0 1 748.373333 292.693333c13.653333 31.061333 20.48 64.426667 20.48 100.096 0 35.669333-6.826667 69.12-20.48 100.181334a250.538667 250.538667 0 0 1-136.106666 136.106666A247.04 247.04 0 0 1 512 649.557333z m0-420.010666c-45.312 0-83.882667 15.872-115.626667 47.616a157.525333 157.525333 0 0 0-47.701333 115.712c0 45.397333 15.872 83.968 47.701333 115.712A157.525333 157.525333 0 0 0 512 556.202667c45.397333 0 83.968-15.872 115.712-47.616 31.744-31.744 47.616-70.314667 47.616-115.712 0-45.397333-15.872-83.882667-47.616-115.712a157.525333 157.525333 0 0 0-115.712-47.616z m265.386667 493.909333a61.44 61.44 0 0 1-62.293334-62.293333c0.085333-17.408 5.973333-32.426667 17.664-44.629334a62.634667 62.634667 0 0 1 44.714667-17.493333 61.44 61.44 0 0 1 62.208 62.208 59.733333 59.733333 0 0 1-18.517333 43.690667 59.733333 59.733333 0 0 1-43.690667 18.517333z"  horiz-adv-x="1024" />
      
      <glyph glyph-name="a-Vector8" unicode="&#59193;" d="M370.736217 249.749852l47.141954 10.953722 4.606705 1.228455a52.055772 52.055772 0 0 1 37.211944 61.934596l-0.204743 0.870156a51.953401 51.953401 0 0 1-8.036142 17.556667 65.671146 65.671146 0 0 1-19.245792 16.481768 177.61409 177.61409 0 0 1-27.333119 12.642848l-51.697473 18.836307a4970.737623 4970.737623 0 0 1-87.322662 31.581525c-18.938678 6.705316-35.010962 12.642847-49.035821 16.891254-2.610466 0.870155-5.528047 1.689125-7.882585 2.456909-16.891254 5.220933-28.766317 7.370729-38.849884 7.421915a46.220612 46.220612 0 0 1-19.552905-3.582993 49.854791 49.854791 0 0 1-17.044811-12.079806 103.394946 103.394946 0 0 1-6.65413-8.445627c-4.043664-6.142274-7.370729-12.796404-9.930009-19.757648A268.212632 268.212632 0 0 1 102.779513 316.700639c0.204742-27.077191 0.972527-61.78104 15.867541-85.326423 3.582993-6.039903 8.343256-11.260836 14.076045-15.355685 10.595423-7.268358 21.293217-8.29207 32.451681-9.059854 16.635325-1.177269 32.758795 2.91758 48.831079 6.65413l156.627987 36.188231h0.102371z m525.829842 250.451223a267.803147 267.803147 0 0 1-51.185617 72.939504 102.88309 102.88309 0 0 1-17.556666 13.410632 100.733294 100.733294 0 0 1-9.725267 4.606706 46.681283 46.681283 0 0 1-39.720039-2.047425c-9.059854-4.401963-18.733936-11.567949-31.735082-23.545384-1.740311-1.842682-3.992478-3.838921-6.039903-5.681603-10.646608-10.083567-22.521671-22.521671-36.648902-36.853644a4801.21086 4801.21086 0 0 1-64.647434-66.694859l-38.235656-39.668853c-6.961244-7.268358-13.30826-15.048571-18.989864-23.391827a65.51759 65.51759 0 0 1-10.083566-23.289456c-1.074898-6.398202-0.921341-12.949961 0.409485-19.296977l0.204742-0.81897a51.953401 51.953401 0 0 1 60.552585-39.310554c2.047425 0.255928 3.685364 0.665413 4.709077 0.870156l203.718755 47.141953c16.123469 3.73655 32.451681 7.165986 46.834839 15.509242 9.725267 5.630418 18.887493 11.20965 25.183324 22.4193a50.161905 50.161905 0 0 1 5.988717 19.96239c3.122323 27.79379-11.363207 59.375316-23.033528 83.739669zM531.766168 414.413982c14.792643 18.529193 14.690272 46.169426 16.021098 68.793469 4.401963 75.54997 9.059854 151.099941 12.796404 226.752282 1.433197 28.561574 4.453149 56.816035 2.712838 85.633537-1.382012 23.801312-1.535569 51.134431-16.58414 70.636152C520.198219 900.728527 463.638112 897.913318 425.095343 892.487643a362.701281 362.701281 0 0 1-35.420447-6.65413c-11.772692-2.815209-23.340641-5.886346-34.755034-9.571711-37.007201-12.079806-89.062973-34.345549-97.8669-77.034353-4.913819-24.108426 6.858873-48.779893 15.969913-70.789708 11.056093-26.718892 26.207036-50.673761 40.027152-75.805899 36.444159-66.336559 73.604917-132.212448 110.612118-198.190708 11.056093-19.604091 23.135899-44.582672 44.531487-54.76861a44.275559 44.275559 0 0 1 4.299592-1.63794c9.57171-3.634179 20.013576-4.350777 30.045957-2.047424l1.791496 0.46067c9.213411 2.559281 17.556667 7.524286 24.05724 14.48553a38.440398 38.440398 0 0 1 3.429437 3.531807z m-17.607852-202.285558a47.090767 47.090767 0 0 1-68.281613 9.162225 120.644499 120.644499 0 0 1-22.163372-22.624042c-1.63794-2.09861-3.122323-4.862634-5.118562-6.705316l-32.758795-45.094529c-18.580379-25.285695-36.90483-50.571389-55.075723-76.317754-11.875063-16.635325-22.061001-30.660184-30.199514-43.047104-1.535569-2.354538-3.122323-4.965005-4.606706-7.063615-9.725267-14.997386-15.202128-26.002293-17.966151-35.727561a46.681283 46.681283 0 0 1-1.996239-20.167133c0.921341-7.063615 3.275879-13.820117 7.012429-19.911205 1.945053-3.071137 4.094849-5.988717 6.295831-8.803926 4.913819-5.630418 10.441866-10.74898 16.481769-15.150942a286.127598 286.127598 0 0 1 73.502545-35.829932c21.702702-7.165986 44.224373-11.465578 67.053159-12.796404a102.473605 102.473605 0 0 1 22.316928 1.740311c3.531808 0.870155 7.01243 1.893868 10.441866 3.071137a47.346696 47.346696 0 0 1 28.61276 28.408017c3.787736 9.418153 6.244645 21.446773 7.882585 39.208182 0.153557 2.559281 0.511856 5.630418 0.767784 8.343256 1.27964 14.792643 1.893868 32.144567 2.866395 52.567628 1.535569 31.325598 2.815209 62.548824 3.787736 93.925607l2.047424 55.689952c0.511856 12.84759 0.102371 27.077191-3.429436 39.822409a59.375316 59.375316 0 0 1-7.524286 17.300739z m370.07201-87.066734c-6.858873 7.4731-16.58414 14.997386-31.88864 24.210796-2.149796 1.228455-4.811448 2.866395-7.165986 4.299592-12.745219 7.677843-28.100904 15.713984-45.964684 25.490437a5476.861002 5476.861002 0 0 1-82.920699 44.37793l-49.138192 26.053479c-2.508095 0.716599-5.118562 2.559281-7.4731 3.685365a122.231253 122.231253 0 0 1-29.841215 10.697794 63.265422 63.265422 0 0 1-17.914966 0.665413 47.193139 47.193139 0 0 1-39.361739-38.901069c-0.716599-6.295831-0.511856-12.591662 0.716598-18.785122 2.405724-13.052332 8.240884-26.002293 14.331973-37.314314l26.207036-49.138192c14.587901-27.742604 29.380544-55.280466 44.531486-82.767143 9.776453-17.914966 17.914966-33.270651 25.490438-45.964684l4.401963-7.165986c9.213411-15.304499 16.686511-24.927395 24.210796-31.837454a46.732468 46.732468 0 0 1 38.184471-12.84759 102.371234 102.371234 0 0 1 10.697794 1.893868 104.418658 104.418658 0 0 1 10.237123 3.27588c3.685364 1.382012 7.165986 3.071137 10.595423 4.913819 19.962391 11.20965 38.338027 24.978581 54.666238 40.948493 19.604091 19.296978 36.90483 40.334266 50.366647 64.391506a101.347521 101.347521 0 0 1 8.189699 20.883732c0.767784 3.582993 1.382012 7.165986 1.791497 10.74898a50.622575 50.622575 0 0 1-2.405724 20.986102 46.630097 46.630097 0 0 1-10.544237 17.198368z"  horiz-adv-x="1024" />
      
      <glyph glyph-name="Group" unicode="&#59192;" d="M655.7952 619.9296c4.3008 1.4848 6.5024-0.7168 9.3696-3.584 15.872-18.0736 67.9424-80.9472 81.664-98.304 2.9184-2.8672 0.7168-6.5024-1.4336-7.936-104.0896-80.896-219.648-195.84-284.0064-278.2208-1.4336-1.4336 0-2.1504 0.7168-1.4336 112.0256 48.384 376.5248 125.7472 495.0016 147.4048V528.1792L491.6992 896 25.6256 528.1792v-164.7616c144.5376 86.016 478.4128 218.9312 630.1696 256.512zM277.12-12.3904c-3.584-2.1504-7.2192-1.4336-10.1376 1.4848L180.2496 92.416c-2.1504 2.8672-2.8672 4.352 0.768 8.704 66.4576 98.9696 203.776 252.16 291.2256 316.4672 1.4336 1.4848 1.4336 2.2016-0.7168 1.4848C380.4416 389.4272 121.728 278.1184 25.6256 223.9488V-128h931.4816v338.944c-127.1808-20.992-507.2896-134.4512-679.9872-223.3344z"  horiz-adv-x="1024" />
      
      <glyph glyph-name="a-Vector7" unicode="&#59191;" d="M1204.886588 773.421176c-42.646588-21.323294-90.593882-31.984941-143.962353-37.345882 53.368471 31.984941 90.654118 79.992471 106.616471 138.601412a520.854588 520.854588 0 0 0-159.864471-58.608941C959.668706 864.015059 895.698824 896 826.368 896c-138.541176 0-250.458353-111.917176-250.458353-250.578824 0-21.263059 0-37.285647 5.300706-58.608941-207.872 10.661647-389.12 106.616471-511.759059 261.240471C58.789647 805.406118 48.128 762.759529 48.128 720.112941c0-85.293176 42.646588-159.924706 111.977412-207.932235-42.646588 0-79.992471 10.661647-111.977412 31.984941v-5.300706c0-122.639059 85.293176-218.593882 197.270588-245.217882-21.323294-5.300706-42.646588-5.300706-63.969882-5.300706-16.022588 0-31.984941 0-48.00753 5.300706 31.984941-101.255529 122.639059-170.586353 234.556236-170.586353-85.293176-63.969882-191.909647-106.616471-309.187765-106.616471-21.323294 0-37.285647 0-58.608941 5.360941 111.917176-69.270588 239.856941-111.977412 378.458353-111.977411 458.390588 0 708.969412 378.518588 708.969412 708.969411V650.842353c42.646588 26.684235 85.293176 69.270588 117.278117 122.639059z"  horiz-adv-x="1204" />
      
      <glyph glyph-name="a-Vector5" unicode="&#59189;" d="M1024 384c0 282.7776-229.2224 512-512 512S0 666.7776 0 384c0-255.5392 187.2384-467.3536 432.0256-505.7536v357.7344h-130.048V384h130.048V496.7936c0 128.3072 76.3904 199.168 193.3824 199.168 56.0128 0 114.5856-9.984 114.5856-9.984v-125.952h-64.512c-63.6416 0-83.456-39.4752-83.456-79.9744V384h141.9776l-22.6816-147.968h-119.296v-357.7856C836.7616-83.3536 1024 128.4608 1024 384z"  horiz-adv-x="1024" />
      
      </font>
</defs>
</svg>
